  0
SECTION
  2
HEADER
  9
$ACADVER
  1
AC1012
  9
$DWGCODEPAGE
  3
dos932
  9
$INSBASE
 10
0.0
 20
0.0
 30
0.0
  9
$EXTMIN
 10
0.0000
 20
0.0000
 30
0.0000
  9
$EXTMAX
 10
1188.0000
 20
840.0000
 30
1800.000
  9
$LIMMIN
 10
0.0000
 20
0.0000
  9
$LIMMAX
 10
1188.0000
 20
840.0000
  9
$ORTHOMODE
 70
     0
  9
$REGENMODE
 70
     1
  9
$FILLMODE
 70
     1
  9
$QTEXTMODE
 70
     0
  9
$MIRRTEXT
 70
     1
  9
$DRAGMODE
 70
     2
  9
$LTSCALE
 40
1.0000
  9
$OSMODE
 70
     0
  9
$ATTMODE
 70
     1
  9
$TEXTSIZE
 40
3.5000
  9
$TRACEWID
 40
0.05
  9
$TEXTSTYLE
  7
STANDARD
  9
$CLAYER
  8
0
  9
$CELTYPE
  6
CONTINUOUS
  9
$CECOLOR
 62
   256
  9
$CELTSCALE
 40
10.0
  9
$DELOBJ
 70
     1
  9
$DISPSILH
 70
     0
  9
$DIMSCALE
 40
1.0000
  9
$DIMASZ
 40
3.0000
  9
$DIMEXO
 40
1.0000
  9
$DIMDLI
 40
3.0
  9
$DIMRND
 40
0.0
  9
$DIMDLE
 40
0.0
  9
$DIMEXE
 40
1.0000
  9
$DIMTP
 40
0.0
  9
$DIMTM
 40
0.0
  9
$DIMTXT
 40
3.0000
  9
$DIMCEN
 40
0.0
  9
$DIMTSZ
 40
0.0
  9
$DIMTOL
 70
     0
  9
$DIMLIM
 70
     0
  9
$DIMTIH
 70
     0
  9
$DIMTOH
 70
     0
  9
$DIMSE1
 70
     0
  9
$DIMSE2
 70
     0
  9
$DIMTAD
 70
     1
  9
$DIMZIN
 70
     8
  9
$DIMBLK
  1
_OPEN
  9
$DIMASO
 70
     1
  9
$DIMSHO
 70
     1
  9
$DIMPOST
  1

  9
$DIMAPOST
  1

  9
$DIMALT
 70
     0
  9
$DIMALTD
 70
     2
  9
$DIMALTF
 40
0.03937
  9
$DIMLFAC
 40
1.0
  9
$DIMTOFL
 70
     1
  9
$DIMTVP
 40
0.75
  9
$DIMTIX
 70
     0
  9
$DIMSOXD
 70
     0
  9
$DIMSAH
 70
     1
  9
$DIMBLK1
  1
_OPEN
  9
$DIMBLK2
  1
_OPEN
  9
$DIMSTYLE
  2
DIM1
  9
$DIMCLRD
 70
     3
  9
$DIMCLRE
 70
     3
  9
$DIMCLRT
 70
     0
  9
$DIMTFAC
 40
1.0000
  9
$DIMGAP
 40
1.5000
  9
$DIMJUST
 70
     0
  9
$DIMSD1
 70
     0
  9
$DIMSD2
 70
     0
  9
$DIMTOLJ
 70
     1
  9
$DIMTZIN
 70
     8
  9
$DIMALTZ
 70
     0
  9
$DIMALTTZ
 70
     0
  9
$DIMFIT
 70
     3
  9
$DIMUPT
 70
     1
  9
$DIMUNIT
 70
     2
  9
$DIMDEC
 70
     4
  9
$DIMTDEC
 70
     4
  9
$DIMALTU
 70
     2
  9
$DIMALTTD
 70
     2
  9
$DIMTXSTY
  7
STANDARD
  9
$DIMAUNIT
 70
     0
  9
$LUNITS
 70
     2
  9
$LUPREC
 70
     4
  9
$SKETCHINC
 40
0.1
  9
$FILLETRAD
 40
10.0
  9
$AUNITS
 70
     0
  9
$AUPREC
 70
     0
  9
$MENU
  1
acad
  9
$ELEVATION
 40
0.0
  9
$PELEVATION
 40
0.0
  9
$THICKNESS
 40
0.0
  9
$LIMCHECK
 70
     0
  9
$BLIPMODE
 70
     1
  9
$CHAMFERA
 40
10.0
  9
$CHAMFERB
 40
10.0
  9
$CHAMFERC
 40
20.0
  9
$CHAMFERD
 40
0.0
  9
$SKPOLY
 70
     0
  9
$TDCREATE
 40
2450901.470568402
  9
$TDUPDATE
 40
2450901.470568402
  9
$TDINDWG
 40
0.0000000000
  9
$TDUSRTIMER
 40
0.0000000000
  9
$USRTIMER
 70
     1
  9
$ANGBASE
 50
0.0
  9
$ANGDIR
 70
     0
  9
$PDMODE
 70
     0
  9
$PDSIZE
 40
0.0
  9
$PLINEWID
 40
0.0
  9
$COORDS
 70
     1
  9
$SPLFRAME
 70
     0
  9
$SPLINETYPE
 70
     6
  9
$SPLINESEGS
 70
     8
  9
$ATTDIA
 70
     0
  9
$ATTREQ
 70
     1
  9
$HANDLING
 70
     1
  9
$HANDSEED
  5
1000
  9
$SURFTAB1
 70
     6
  9
$SURFTAB2
 70
     6
  9
$SURFTYPE
 70
     6
  9
$SURFU
 70
     6
  9
$SURFV
 70
     6
  9
$UCSNAME
  2

  9
$UCSORG
 10
0.0
 20
0.0
 30
0.0
  9
$UCSXDIR
 10
1.0
 20
0.0
 30
0.0
  9
$UCSYDIR
 10
0.0
 20
1.0
 30
0.0
  9
$PUCSNAME
  2

  9
$PUCSORG
 10
0.0
 20
0.0
 30
0.0
  9
$PUCSXDIR
 10
1.0
 20
0.0
 30
0.0
  9
$PUCSYDIR
 10
0.0
 20
1.0
 30
0.0
  9
$USERI1
 70
     0
  9
$USERI2
 70
     0
  9
$USERI3
 70
     0
  9
$USERI4
 70
     0
  9
$USERI5
 70
     0
  9
$USERR1
 40
0.0
  9
$USERR2
 40
0.0
  9
$USERR3
 40
0.0
  9
$USERR4
 40
0.0
  9
$USERR5
 40
0.0
  9
$WORLDVIEW
 70
     1
  9
$SHADEDGE
 70
     3
  9
$SHADEDIF
 70
    70
  9
$TILEMODE
 70
     1
  9
$MAXACTVP
 70
    16
  9
$PINSBASE
 10
0.0
 20
0.0
 30
0.0
  9
$PLIMCHECK
 70
     0
  9
$PEXTMIN
 10
0.000000
 20
0.000000
 30
0.000000
  9
$PEXTMAX
 10
1800.0000
 20
1800.0000
 30
1800.0000
  9
$PLIMMIN
 10
0.0000
 20
0.0000
  9
$PLIMMAX
 10
1188.0000
 20
840.0000
  9
$UNITMODE
 70
     0
  9
$VISRETAIN
 70
     0
  9
$PLINEGEN
 70
     0
  9
$PSLTSCALE
 70
     1
  9
$TREEDEPTH
 70
  3020
  9
$PICKSTYLE
 70
     1
  9
$CMLSTYLE
  2
STANDARD
  9
$CMLJUST
 70
     0
  9
$CMLSCALE
 40
1.0
  9
$SAVEIMAGES
 70
     0
  0
ENDSEC
  0
SECTION
  2
CLASSES
  0
ENDSEC
  0
SECTION
  2
TABLES
  0
TABLE
  2
VPORT
  5
8
100
AcDbSymbolTable
 70
     2
  0
VPORT
  5
1F
100
AcDbSymbolTableRecord
100
AcDbViewportTableRecord
  2
*ACTIVE
 70
     0
 10
0.0
 20
0.0
 11
1.0
 21
1.0
 12
203.3102
 22
105.0
 13
0.0
 23
0.0
 14
10.0
 24
10.0
 15
10.0
 25
10.0
 16
0.0
 26
0.0
 36
1.0
 17
0.0
 27
0.0
 37
0.0
 40
210.0
 41
1.9363
 42
50.0
 43
0.0
 44
0.0
 50
0.0
 51
0.0
 71
     0
 72
   100
 73
     1
 74
     0
 75
     0
 76
     0
 77
     0
 78
     0
  0
ENDTAB
  0
TABLE
  2
LTYPE
  5
12D
100
AcDbSymbolTable
 70
     4
  0
LTYPE
  5
14
100
AcDbSymbolTableRecord
100
AcDbLinetypeTableRecord
  2
BYBLOCK
 70
     0
  3

 72
    65
 73
     0
 40
0.0
  0
LTYPE
  5
15
100
AcDbSymbolTableRecord
100
AcDbLinetypeTableRecord
  2
BYLAYER
 70
     0
  3

 72
    65
 73
     0
 40
0.0
  0
LTYPE
  5
92
100
AcDbSymbolTableRecord
100
AcDbLinetypeTableRecord
  2
CONTINUOUS
 70
     0
  3
Solid line
 72
    65
 73
     0
 40
0.0
  0
LTYPE
  5
97
100
AcDbSymbolTableRecord
100
AcDbLinetypeTableRecord
  2
CENTER2
 70
    64
  3
___ _ ___ _ ___ _ ___ _ ___ _ ___ _ ___ _ ___ _
 72
    65
 73
     4
 40
1.125
 49
0.75
 74
     0
 49
-0.125
 74
     0
 49
0.125
 74
     0
 49
-0.125
 74
     0
  0
LTYPE
  5
A5
100
AcDbSymbolTableRecord
100
AcDbLinetypeTableRecord
  2
HIDDEN
 70
    64
  3
__ __ __ __ __ __ __ __ __ __ __ __ __ __ __ __
 72
    65
 73
     2
 40
0.375
 49
0.25
 74
     0
 49
-0.125
 74
     0
  0
LTYPE
  5
A9
100
AcDbSymbolTableRecord
100
AcDbLinetypeTableRecord
  2
PHANTOM2
 70
    64
  3
___ _ _ ___ _ _ ___ _ _ ___ _ _ ___ _ _ ___ _ _
 72
    65
 73
     6
 40
1.25
 49
0.625
 74
     0
 49
-0.125
 74
     0
 49
0.125
 74
     0
 49
-0.125
 74
     0
 49
0.125
 74
     0
 49
-0.125
 74
     0
  0
ENDTAB
  0
TABLE
  2
LAYER
  5
12E
100
AcDbSymbolTable
 70
     1
  0
LAYER
  5
12F
100
AcDbSymbolTableRecord
100
AcDbLayerTableRecord
  2
0
 70
    64
 62
     7
  6
CONTINUOUS
  0
ENDTAB
  0
TABLE
  2
STYLE
  5
3
100
AcDbSymbolTable
 70
     1
  0
STYLE
  5
10
100
AcDbSymbolTableRecord
100
AcDbTextStyleTableRecord
  2
STANDARD
 70
     0
 40
0.0
 41
0.8
 50
0.0
 71
     0
 42
3.5000
  3
simplex
  4
extfont
  0
ENDTAB
  0
TABLE
  2
VIEW
  5
6
100
AcDbSymbolTable
 70
     0
  0
ENDTAB
  0
TABLE
  2
UCS
  5
7
100
AcDbSymbolTable
 70
     0
  0
ENDTAB
  0
TABLE
  2
APPID
  5
9
100
AcDbSymbolTable
 70
     1
  0
APPID
  5
11
100
AcDbSymbolTableRecord
100
AcDbRegAppTableRecord
  2
ACAD
 70
     0
  0
ENDTAB
  0
TABLE
  2
DIMSTYLE
  5
A
100
AcDbSymbolTable
 70
     1
  0
DIMSTYLE
105
1D
100
AcDbSymbolTableRecord
100
AcDbDimStyleTableRecord
  2
DIM1
 70
     0
  3

  4

  5
_OPEN
  6
_OPEN
  7
_OPEN
 40
1.0000
 41
3.0000
 42
1.0000
 43
30.0
 44
1.0000
 45
0.0
 46
0.0
 47
0.0
 48
0.0
140
3.0000
141
0.0
142
0.0
143
25.4
144
1.0
145
0.0
146
1.0000
147
1.5000
 71
     0
 72
     0
 73
     0
 74
     0
 75
     0
 76
     0
 77
     1
 78
     8
170
     0
171
     2
172
     1
173
     1
174
     0
175
     0
176
     3
177
     3
178
     0
270
     2
271
     4
272
     4
273
     2
274
     2
340
10
275
     0
280
     0
281
     0
282
     0
283
     1
284
     8
285
     0
286
     0
287
    3
288
     1
  0
ENDTAB
  0
TABLE
  2
BLOCK_RECORD
  5
1
100
AcDbSymbolTable
 70
    19
  0
BLOCK_RECORD
  5
19
100
AcDbSymbolTableRecord
100
AcDbBlockTableRecord
  2
*MODEL_SPACE
  0
BLOCK_RECORD
  5
16
100
AcDbSymbolTableRecord
100
AcDbBlockTableRecord
  2
*PAPER_SPACE
  0
BLOCK_RECORD
  5
C0
100
AcDbSymbolTableRecord
100
AcDbBlockTableRecord
  2
_OPEN
  0
BLOCK_RECORD
  5
C1
100
AcDbSymbolTableRecord
100
AcDbBlockTableRecord
  2
_ORIGIN
  0
BLOCK_RECORD
  5
C2
100
AcDbSymbolTableRecord
100
AcDbBlockTableRecord
  2
_OBLIQUE
  0
BLOCK_RECORD
  5
C3
100
AcDbSymbolTableRecord
100
AcDbBlockTableRecord
  2
_NONE
  0
BLOCK_RECORD
  5
C4
100
AcDbSymbolTableRecord
100
AcDbBlockTableRecord
  2
_DOT
  0
BLOCK_RECORD
  5
130
100
AcDbSymbolTableRecord
100
AcDbBlockTableRecord
  2
*D0
  0
BLOCK_RECORD
  5
131
100
AcDbSymbolTableRecord
100
AcDbBlockTableRecord
  2
*D1
  0
BLOCK_RECORD
  5
132
100
AcDbSymbolTableRecord
100
AcDbBlockTableRecord
  2
*D2
  0
BLOCK_RECORD
  5
133
100
AcDbSymbolTableRecord
100
AcDbBlockTableRecord
  2
*D3
  0
BLOCK_RECORD
  5
134
100
AcDbSymbolTableRecord
100
AcDbBlockTableRecord
  2
*D4
  0
BLOCK_RECORD
  5
135
100
AcDbSymbolTableRecord
100
AcDbBlockTableRecord
  2
*D5
  0
BLOCK_RECORD
  5
136
100
AcDbSymbolTableRecord
100
AcDbBlockTableRecord
  2
*D6
  0
BLOCK_RECORD
  5
137
100
AcDbSymbolTableRecord
100
AcDbBlockTableRecord
  2
*D7
  0
BLOCK_RECORD
  5
138
100
AcDbSymbolTableRecord
100
AcDbBlockTableRecord
  2
*D8
  0
BLOCK_RECORD
  5
139
100
AcDbSymbolTableRecord
100
AcDbBlockTableRecord
  2
*D9
  0
BLOCK_RECORD
  5
13A
100
AcDbSymbolTableRecord
100
AcDbBlockTableRecord
  2
*D10
  0
BLOCK_RECORD
  5
13B
100
AcDbSymbolTableRecord
100
AcDbBlockTableRecord
  2
*D11
  0
BLOCK_RECORD
  5
13C
100
AcDbSymbolTableRecord
100
AcDbBlockTableRecord
  2
*D12
  0
BLOCK_RECORD
  5
13D
100
AcDbSymbolTableRecord
100
AcDbBlockTableRecord
  2
*D13
  0
ENDTAB
  0
ENDSEC
  0
SECTION
  2
BLOCKS
  0
BLOCK
  5
1A
100
AcDbEntity
  8
0
100
AcDbBlockBegin
  2
*MODEL_SPACE
 70
     0
 10
0.0
 20
0.0
 30
0.0
  3
*MODEL_SPACE
  1

  0
ENDBLK
  5
1B
100
AcDbEntity
  8
0
100
AcDbBlockEnd
  0
BLOCK
  5
17
100
AcDbEntity
 67
     1
  8
0
100
AcDbBlockBegin
  2
*PAPER_SPACE
 70
     0
 10
0.0
 20
0.0
 30
0.0
  3
*PAPER_SPACE
  1

  0
ENDBLK
  5
18
100
AcDbEntity
 67
     1
  8
0
100
AcDbBlockEnd
  0
BLOCK
  5
2B
100
AcDbEntity
  8
0
100
AcDbBlockBegin
  2
_OPEN
 70
    64
 10
0.0
 20
0.0
 30
0.0
  3
_OPEN
  1

  0
LINE
  5
2C
100
AcDbEntity
  8
0
  6
BYBLOCK
 62
     0
100
AcDbLine
 10
-1.0
 20
0.1667
 30
0.0
 11
0.0
 21
0.0
 31
0.0
  0
LINE
  5
2D
100
AcDbEntity
  8
0
  6
BYBLOCK
 62
     0
100
AcDbLine
 10
0.0
 20
0.0
 30
0.0
 11
-1.0
 21
-0.1667
 31
0.0
  0
LINE
  5
2E
100
AcDbEntity
  8
0
  6
BYBLOCK
 62
     0
100
AcDbLine
 10
0.0
 20
0.0
 30
0.0
 11
-1.0
 21
0.0
 31
0.0
  0
ENDBLK
  5
2F
100
AcDbEntity
  8
0
100
AcDbBlockEnd
  0
BLOCK
  5
C5
100
AcDbEntity
  8
0
100
AcDbBlockBegin
  2
_ORIGIN
 70
     0
 10
0.0
 20
0.0
 30
0.0
  3
_ORIGIN
  1

  0
CIRCLE
  5
C6
100
AcDbEntity
  8
0
  6
BYBLOCK
 62
     0
100
AcDbCircle
 10
0.0
 20
0.0
 30
0.0
 40
0.5
  0
LINE
  5
C7
100
AcDbEntity
  8
0
  6
BYBLOCK
 62
     0
100
AcDbLine
 10
0.0
 20
0.0
 30
0.0
 11
-1.0
 21
0.0
 31
0.0
  0
ENDBLK
  5
C8
100
AcDbEntity
  8
0
100
AcDbBlockEnd
  0
BLOCK
  5
C9
100
AcDbEntity
  8
0
100
AcDbBlockBegin
  2
_DOT
 70
     0
 10
0.0
 20
0.0
 30
0.0
  3
_DOT
  1

  0
POLYLINE
  5
CA
100
AcDbEntity
  8
0
  6
BYBLOCK
 62
     0
100
AcDb2dPolyline
 66
     1
 10
0.0
 20
0.0
 30
0.0
 70
     1
 40
0.5
 41
0.5
  0
VERTEX
  5
CB
100
AcDbEntity
  8
0
  6
BYBLOCK
 62
     0
100
AcDbVertex
100
AcDb2dVertex
 10
-0.25
 20
0.0
 30
0.0
 42
1.0
  0
VERTEX
  5
CC
100
AcDbEntity
  8
0
  6
BYBLOCK
 62
     0
100
AcDbVertex
100
AcDb2dVertex
 10
0.25
 20
0.0
 30
0.0
 42
1.0
  0
SEQEND
  5
CD
100
AcDbEntity
  8
0
  6
BYBLOCK
 62
     0
  0
LINE
  5
CE
100
AcDbEntity
  8
0
  6
BYBLOCK
 62
     0
100
AcDbLine
 10
-0.5
 20
0.0
 30
0.0
 11
-1.0
 21
0.0
 31
0.0
  0
ENDBLK
  5
CF
100
AcDbEntity
  8
0
100
AcDbBlockEnd
  0
BLOCK
  5
D0
100
AcDbEntity
  8
0
100
AcDbBlockBegin
  2
_OBLIQUE
 70
     0
 10
0.0
 20
0.0
 30
0.0
  3
_OBLIQUE
  1

  0
LINE
  5
E0
100
AcDbEntity
  8
0
  6
BYBLOCK
 62
     0
100
AcDbLine
 10
-0.5
 20
-0.5
 30
0.0
 11
0.5
 21
0.5
 31
0.0
  0
ENDBLK
  5
E1
100
AcDbEntity
  8
0
100
AcDbBlockEnd
  0
BLOCK
  5
E2
100
AcDbEntity
  8
0
100
AcDbBlockBegin
  2
_NONE
 70
     0
 10
0.0
 20
0.0
 30
0.0
  3
_NONE
  1

  0
CIRCLE
  5
E3
100
AcDbEntity
  8
0
  6
BYBLOCK
 62
     0
100
AcDbCircle
 10
0.0
 20
0.0
 30
0.0
 40
0.25
  0
ENDBLK
  5
E4
100
AcDbEntity
  8
0
100
AcDbBlockEnd
  0
BLOCK
  5
13E
100
AcDbEntity
  8
0
100
AcDbBlockBegin
  2
*D0
 70
    65
 10
0.0
 20
0.0
  0
MTEXT
  5
13F
100
AcDbEntity
  8
0
100
AcDbMText
 62
     0
  6
CONTINUOUS
 10
616.236406087875
 20
494.363333333334
 40
3.000000000000
 41
0.000000000000
 71
     5
 72
     1
 11
0.000000000000
 21
1.000000000000
  1
\A1;200%%p30
  0
LINE
  5
140
100
AcDbEntity
  8
0
100
AcDbLine
 62
     3
  6
CONTINUOUS
 10
619.236406087875
 20
513.333333333334
 11
619.236406087875
 21
481.333333333334
  0
INSERT
  5
141
100
AcDbEntity
  8
0
100
AcDbBlockReference
 62
     3
  6
CONTINUOUS
  2
_OPEN
 10
619.236406
 20
513.333333
 41
3.000000
 42
3.000000
 50
90.000000
  0
INSERT
  5
142
100
AcDbEntity
  8
0
100
AcDbBlockReference
 62
     3
  6
CONTINUOUS
  2
_OPEN
 10
619.236406
 20
481.333333
 41
3.000000
 42
3.000000
 50
270.000000
  0
LINE
  5
143
100
AcDbEntity
  8
0
100
AcDbLine
 62
     3
  6
CONTINUOUS
 10
584.666666666667
 20
513.333333333334
 11
620.236406087875
 21
513.333333333334
  0
LINE
  5
144
100
AcDbEntity
  8
0
100
AcDbLine
 62
     3
  6
CONTINUOUS
 10
568.166666666667
 20
481.333333333334
 11
620.236406087875
 21
481.333333333334
  0
ENDBLK
  5
145
100
AcDbEntity
  8
0
100
AcDbBlockEnd
  0
BLOCK
  5
146
100
AcDbEntity
  8
0
100
AcDbBlockBegin
  2
*D1
 70
    65
 10
0.0
 20
0.0
  0
MTEXT
  5
147
100
AcDbEntity
  8
0
100
AcDbMText
 62
     0
  6
CONTINUOUS
 10
423.653669446707
 20
539.108333333333
 40
3.000000000000
 41
0.000000000000
 71
     5
 72
     1
 11
0.000000000000
 21
1.000000000000
  1
\A1;(174)
  0
LINE
  5
148
100
AcDbEntity
  8
0
100
AcDbLine
 62
     3
  6
CONTINUOUS
 10
426.653669446707
 20
627.333333333333
 11
426.653669446707
 21
455.833333333333
  0
INSERT
  5
149
100
AcDbEntity
  8
0
100
AcDbBlockReference
 62
     3
  6
CONTINUOUS
  2
_OPEN
 10
426.653669
 20
627.333333
 41
3.000000
 42
3.000000
 50
90.000000
  0
INSERT
  5
14A
100
AcDbEntity
  8
0
100
AcDbBlockReference
 62
     3
  6
CONTINUOUS
  2
_OPEN
 10
426.653669
 20
455.833333
 41
3.000000
 42
3.000000
 50
270.000000
  0
LINE
  5
14B
100
AcDbEntity
  8
0
100
AcDbLine
 62
     3
  6
CONTINUOUS
 10
472.666666666667
 20
627.333333333333
 11
425.653669446707
 21
627.333333333333
  0
LINE
  5
14C
100
AcDbEntity
  8
0
100
AcDbLine
 62
     3
  6
CONTINUOUS
 10
497.198037516565
 20
455.833333333333
 11
425.653669446707
 21
455.833333333333
  0
ENDBLK
  5
14D
100
AcDbEntity
  8
0
100
AcDbBlockEnd
  0
BLOCK
  5
14E
100
AcDbEntity
  8
0
100
AcDbBlockBegin
  2
*D2
 70
    65
 10
0.0
 20
0.0
  0
MTEXT
  5
14F
100
AcDbEntity
  8
0
100
AcDbMText
 62
     0
  6
CONTINUOUS
 10
442.891189217567
 20
315.699196993907
 40
3.000000000000
 41
0.000000000000
 71
     5
 72
     1
 11
0.000000000000
 21
1.000000000000
  1
\A1;(135)
  0
LINE
  5
150
100
AcDbEntity
  8
0
100
AcDbLine
 62
     3
  6
CONTINUOUS
 10
445.891189217567
 20
386.784196993907
 11
445.891189217567
 21
252.564196993907
  0
INSERT
  5
151
100
AcDbEntity
  8
0
100
AcDbBlockReference
 62
     3
  6
CONTINUOUS
  2
_OPEN
 10
445.891189
 20
386.784197
 41
3.000000
 42
3.000000
 50
90.000000
  0
INSERT
  5
152
100
AcDbEntity
  8
0
100
AcDbBlockReference
 62
     3
  6
CONTINUOUS
  2
_OPEN
 10
445.891189
 20
252.564197
 41
3.000000
 42
3.000000
 50
270.000000
  0
LINE
  5
153
100
AcDbEntity
  8
0
100
AcDbLine
 62
     3
  6
CONTINUOUS
 10
497.666666666667
 20
386.784196993907
 11
444.891189217567
 21
386.784196993907
  0
LINE
  5
154
100
AcDbEntity
  8
0
100
AcDbLine
 62
     3
  6
CONTINUOUS
 10
470.666666666667
 20
252.564196993907
 11
444.891189217567
 21
252.564196993907
  0
ENDBLK
  5
155
100
AcDbEntity
  8
0
100
AcDbBlockEnd
  0
BLOCK
  5
156
100
AcDbEntity
  8
0
100
AcDbBlockBegin
  2
*D3
 70
    65
 10
0.0
 20
0.0
  0
MTEXT
  5
157
100
AcDbEntity
  8
0
100
AcDbMText
 62
     0
  6
CONTINUOUS
 10
456.390731096268
 20
378.574196993907
 40
3.000000000000
 41
0.000000000000
 71
     5
 72
     1
 11
0.000000000000
 21
1.000000000000
  1
\A1;10
  0
LINE
  5
158
100
AcDbEntity
  8
0
100
AcDbLine
 62
     3
  6
CONTINUOUS
 10
459.390731096268
 20
384.564196993907
 11
459.390731096268
 21
374.564196993907
  0
INSERT
  5
159
100
AcDbEntity
  8
0
100
AcDbBlockReference
 62
     3
  6
CONTINUOUS
  2
_OPEN
 10
459.390731
 20
384.564197
 41
3.000000
 42
3.000000
 50
90.000000
  0
INSERT
  5
15A
100
AcDbEntity
  8
0
100
AcDbBlockReference
 62
     3
  6
CONTINUOUS
  2
_OPEN
 10
459.390731
 20
374.564197
 41
3.000000
 42
3.000000
 50
270.000000
  0
LINE
  5
15B
100
AcDbEntity
  8
0
100
AcDbLine
 62
     3
  6
CONTINUOUS
 10
484.666666666667
 20
384.564196993907
 11
458.390731096268
 21
384.564196993907
  0
LINE
  5
15C
100
AcDbEntity
  8
0
100
AcDbLine
 62
     3
  6
CONTINUOUS
 10
470.666666666667
 20
374.564196993907
 11
458.390731096268
 21
374.564196993907
  0
ENDBLK
  5
15D
100
AcDbEntity
  8
0
100
AcDbBlockEnd
  0
BLOCK
  5
15E
100
AcDbEntity
  8
0
100
AcDbBlockBegin
  2
*D4
 70
    65
 10
0.0
 20
0.0
  0
MTEXT
  5
15F
100
AcDbEntity
  8
0
100
AcDbMText
 62
     0
  6
CONTINUOUS
 10
533.191666666667
 20
671.020157754421
 40
3.000000000000
 41
0.000000000000
 71
     5
 72
     1
  1
\A1;(128)
  0
LINE
  5
160
100
AcDbEntity
  8
0
100
AcDbLine
 62
     3
  6
CONTINUOUS
 10
471.666666666667
 20
668.020157754421
 11
599.666666666667
 21
668.020157754421
  0
INSERT
  5
161
100
AcDbEntity
  8
0
100
AcDbBlockReference
 62
     3
  6
CONTINUOUS
  2
_OPEN
 10
471.666667
 20
668.020158
 41
3.000000
 42
3.000000
 50
180.000000
  0
INSERT
  5
162
100
AcDbEntity
  8
0
100
AcDbBlockReference
 62
     3
  6
CONTINUOUS
  2
_OPEN
 10
599.666667
 20
668.020158
 41
3.000000
 42
3.000000
 50
0.000000
  0
LINE
  5
163
100
AcDbEntity
  8
0
100
AcDbLine
 62
     3
  6
CONTINUOUS
 10
471.666666666667
 20
628.333333333333
 11
471.666666666667
 21
669.020157754421
  0
LINE
  5
164
100
AcDbEntity
  8
0
100
AcDbLine
 62
     3
  6
CONTINUOUS
 10
599.666666666667
 20
628.333333333333
 11
599.666666666667
 21
669.020157754421
  0
ENDBLK
  5
165
100
AcDbEntity
  8
0
100
AcDbBlockEnd
  0
BLOCK
  5
166
100
AcDbEntity
  8
0
100
AcDbBlockBegin
  2
*D5
 70
    65
 10
0.0
 20
0.0
  0
MTEXT
  5
167
100
AcDbEntity
  8
0
100
AcDbMText
 62
     0
  6
CONTINUOUS
 10
534.181666666667
 20
660.677360117435
 40
3.000000000000
 41
0.000000000000
 71
     5
 72
     1
  1
\A1;100
  0
LINE
  5
168
100
AcDbEntity
  8
0
100
AcDbLine
 62
     3
  6
CONTINUOUS
 10
485.666666666667
 20
657.677360117435
 11
585.666666666667
 21
657.677360117435
  0
INSERT
  5
169
100
AcDbEntity
  8
0
100
AcDbBlockReference
 62
     3
  6
CONTINUOUS
  2
_OPEN
 10
485.666667
 20
657.677360
 41
3.000000
 42
3.000000
 50
180.000000
  0
INSERT
  5
16A
100
AcDbEntity
  8
0
100
AcDbBlockReference
 62
     3
  6
CONTINUOUS
  2
_OPEN
 10
585.666667
 20
657.677360
 41
3.000000
 42
3.000000
 50
0.000000
  0
LINE
  5
16B
100
AcDbEntity
  8
0
100
AcDbLine
 62
     3
  6
CONTINUOUS
 10
485.666666666667
 20
612.333333333333
 11
485.666666666667
 21
658.677360117435
  0
LINE
  5
16C
100
AcDbEntity
  8
0
100
AcDbLine
 62
     3
  6
CONTINUOUS
 10
585.666666666667
 20
612.333333333333
 11
585.666666666667
 21
658.677360117435
  0
ENDBLK
  5
16D
100
AcDbEntity
  8
0
100
AcDbBlockEnd
  0
BLOCK
  5
16E
100
AcDbEntity
  8
0
100
AcDbBlockBegin
  2
*D6
 70
    65
 10
0.0
 20
0.0
  0
MTEXT
  5
16F
100
AcDbEntity
  8
0
100
AcDbMText
 62
     0
  6
CONTINUOUS
 10
534.676666666667
 20
650.127706527710
 40
3.000000000000
 41
0.000000000000
 71
     5
 72
     1
  1
\A1;74
  0
LINE
  5
170
100
AcDbEntity
  8
0
100
AcDbLine
 62
     3
  6
CONTINUOUS
 10
498.666666666667
 20
647.127706527710
 11
572.666666666667
 21
647.127706527710
  0
INSERT
  5
171
100
AcDbEntity
  8
0
100
AcDbBlockReference
 62
     3
  6
CONTINUOUS
  2
_OPEN
 10
498.666667
 20
647.127707
 41
3.000000
 42
3.000000
 50
180.000000
  0
INSERT
  5
172
100
AcDbEntity
  8
0
100
AcDbBlockReference
 62
     3
  6
CONTINUOUS
  2
_OPEN
 10
572.666667
 20
647.127707
 41
3.000000
 42
3.000000
 50
0.000000
  0
LINE
  5
173
100
AcDbEntity
  8
0
100
AcDbLine
 62
     3
  6
CONTINUOUS
 10
498.666666666667
 20
599.333333333333
 11
498.666666666667
 21
648.127706527710
  0
LINE
  5
174
100
AcDbEntity
  8
0
100
AcDbLine
 62
     3
  6
CONTINUOUS
 10
572.666666666667
 20
599.333333333333
 11
572.666666666667
 21
648.127706527710
  0
ENDBLK
  5
175
100
AcDbEntity
  8
0
100
AcDbBlockEnd
  0
BLOCK
  5
176
100
AcDbEntity
  8
0
100
AcDbBlockBegin
  2
*D7
 70
    65
 10
0.0
 20
0.0
  0
MTEXT
  5
177
100
AcDbEntity
  8
0
100
AcDbMText
 62
     0
  6
CONTINUOUS
 10
534.676666666667
 20
640.405471622944
 40
3.000000000000
 41
0.000000000000
 71
     5
 72
     1
  1
\A1;50
  0
LINE
  5
178
100
AcDbEntity
  8
0
100
AcDbLine
 62
     3
  6
CONTINUOUS
 10
510.666666666667
 20
637.405471622944
 11
560.666666666667
 21
637.405471622944
  0
INSERT
  5
179
100
AcDbEntity
  8
0
100
AcDbBlockReference
 62
     3
  6
CONTINUOUS
  2
_OPEN
 10
510.666667
 20
637.405472
 41
3.000000
 42
3.000000
 50
180.000000
  0
INSERT
  5
17A
100
AcDbEntity
  8
0
100
AcDbBlockReference
 62
     3
  6
CONTINUOUS
  2
_OPEN
 10
560.666667
 20
637.405472
 41
3.000000
 42
3.000000
 50
0.000000
  0
LINE
  5
17B
100
AcDbEntity
  8
0
100
AcDbLine
 62
     3
  6
CONTINUOUS
 10
510.666666666667
 20
591.333333333333
 11
510.666666666667
 21
638.405471622944
  0
LINE
  5
17C
100
AcDbEntity
  8
0
100
AcDbLine
 62
     3
  6
CONTINUOUS
 10
560.666666666667
 20
594.607266714176
 11
560.666666666667
 21
638.405471622944
  0
ENDBLK
  5
17D
100
AcDbEntity
  8
0
100
AcDbBlockEnd
  0
BLOCK
  5
17E
100
AcDbEntity
  8
0
100
AcDbBlockBegin
  2
*D8
 70
    65
 10
0.0
 20
0.0
  0
MTEXT
  5
17F
100
AcDbEntity
  8
0
100
AcDbMText
 62
     0
  6
CONTINUOUS
 10
459.132389783859
 20
562.343333333333
 40
3.000000000000
 41
0.000000000000
 71
     5
 72
     1
 11
0.000000000000
 21
1.000000000000
  1
\A1;50
  0
LINE
  5
180
100
AcDbEntity
  8
0
100
AcDbLine
 62
     3
  6
CONTINUOUS
 10
462.132389783859
 20
538.333333333333
 11
462.132389783859
 21
588.333333333333
  0
INSERT
  5
181
100
AcDbEntity
  8
0
100
AcDbBlockReference
 62
     3
  6
CONTINUOUS
  2
_OPEN
 10
462.132390
 20
538.333333
 41
3.000000
 42
3.000000
 50
270.000000
  0
INSERT
  5
182
100
AcDbEntity
  8
0
100
AcDbBlockReference
 62
     3
  6
CONTINUOUS
  2
_OPEN
 10
462.132390
 20
588.333333
 41
3.000000
 42
3.000000
 50
90.000000
  0
LINE
  5
183
100
AcDbEntity
  8
0
100
AcDbLine
 62
     3
  6
CONTINUOUS
 10
504.810656721393
 20
538.333333333333
 11
461.132389783859
 21
538.333333333333
  0
LINE
  5
184
100
AcDbEntity
  8
0
100
AcDbLine
 62
     3
  6
CONTINUOUS
 10
504.810656721393
 20
588.333333333333
 11
461.132389783859
 21
588.333333333333
  0
ENDBLK
  5
185
100
AcDbEntity
  8
0
100
AcDbBlockEnd
  0
BLOCK
  5
186
100
AcDbEntity
  8
0
100
AcDbBlockBegin
  2
*D9
 70
    65
 10
0.0
 20
0.0
  0
MTEXT
  5
187
100
AcDbEntity
  8
0
100
AcDbMText
 62
     0
  6
CONTINUOUS
 10
456.390731096268
 20
312.079196993907
 40
3.000000000000
 41
0.000000000000
 71
     5
 72
     1
 11
0.000000000000
 21
1.000000000000
  1
\A1;122
  0
LINE
  5
188
100
AcDbEntity
  8
0
100
AcDbLine
 62
     3
  6
CONTINUOUS
 10
459.390731096268
 20
374.564196993907
 11
459.390731096268
 21
252.564196993907
  0
INSERT
  5
189
100
AcDbEntity
  8
0
100
AcDbBlockReference
 62
     3
  6
CONTINUOUS
  2
_OPEN
 10
459.390731
 20
374.564197
 41
3.000000
 42
3.000000
 50
90.000000
  0
INSERT
  5
18A
100
AcDbEntity
  8
0
100
AcDbBlockReference
 62
     3
  6
CONTINUOUS
  2
_OPEN
 10
459.390731
 20
252.564197
 41
3.000000
 42
3.000000
 50
270.000000
  0
LINE
  5
18B
100
AcDbEntity
  8
0
100
AcDbLine
 62
     3
  6
CONTINUOUS
 10
470.666666666667
 20
374.564196993907
 11
458.390731096268
 21
374.564196993907
  0
LINE
  5
18C
100
AcDbEntity
  8
0
100
AcDbLine
 62
     3
  6
CONTINUOUS
 10
470.666666666667
 20
252.564196993907
 11
458.390731096268
 21
252.564196993907
  0
ENDBLK
  5
18D
100
AcDbEntity
  8
0
100
AcDbBlockEnd
  0
BLOCK
  5
18E
100
AcDbEntity
  8
0
100
AcDbBlockBegin
  2
*D10
 70
    65
 10
0.0
 20
0.0
  0
MTEXT
  5
18F
100
AcDbEntity
  8
0
100
AcDbMText
 62
     0
  6
CONTINUOUS
 10
533.686666666667
 20
440.595694497228
 40
3.000000000000
 41
0.000000000000
 71
     5
 72
     1
  1
\A1;(63)
  0
LINE
  5
190
100
AcDbEntity
  8
0
100
AcDbLine
 62
     3
  6
CONTINUOUS
 10
504.166666666667
 20
437.595694497228
 11
567.166666666667
 21
437.595694497228
  0
INSERT
  5
191
100
AcDbEntity
  8
0
100
AcDbBlockReference
 62
     3
  6
CONTINUOUS
  2
_OPEN
 10
504.166667
 20
437.595694
 41
3.000000
 42
3.000000
 50
180.000000
  0
INSERT
  5
192
100
AcDbEntity
  8
0
100
AcDbBlockReference
 62
     3
  6
CONTINUOUS
  2
_OPEN
 10
567.166667
 20
437.595694
 41
3.000000
 42
3.000000
 50
0.000000
  0
LINE
  5
193
100
AcDbEntity
  8
0
100
AcDbLine
 62
     3
  6
CONTINUOUS
 10
504.166666666667
 20
478.449972074099
 11
504.166666666667
 21
436.595694497228
  0
LINE
  5
194
100
AcDbEntity
  8
0
100
AcDbLine
 62
     3
  6
CONTINUOUS
 10
567.166666666667
 20
477.574077490338
 11
567.166666666667
 21
436.595694497228
  0
ENDBLK
  5
195
100
AcDbEntity
  8
0
100
AcDbBlockEnd
  0
BLOCK
  5
196
100
AcDbEntity
  8
0
100
AcDbBlockBegin
  2
*D11
 70
    65
 10
0.0
 20
0.0
  0
MTEXT
  5
197
100
AcDbEntity
  8
0
100
AcDbMText
 62
     0
  6
CONTINUOUS
 10
433.222767353058
 20
561.848333333333
 40
3.000000000000
 41
0.000000000000
 71
     5
 72
     1
 11
0.000000000000
 21
1.000000000000
  1
\A1;128
  0
LINE
  5
198
100
AcDbEntity
  8
0
100
AcDbLine
 62
     3
  6
CONTINUOUS
 10
436.222767353058
 20
627.333333333333
 11
436.222767353058
 21
499.333333333333
  0
INSERT
  5
199
100
AcDbEntity
  8
0
100
AcDbBlockReference
 62
     3
  6
CONTINUOUS
  2
_OPEN
 10
436.222767
 20
627.333333
 41
3.000000
 42
3.000000
 50
90.000000
  0
INSERT
  5
19A
100
AcDbEntity
  8
0
100
AcDbBlockReference
 62
     3
  6
CONTINUOUS
  2
_OPEN
 10
436.222767
 20
499.333333
 41
3.000000
 42
3.000000
 50
270.000000
  0
LINE
  5
19B
100
AcDbEntity
  8
0
100
AcDbLine
 62
     3
  6
CONTINUOUS
 10
470.666666666667
 20
627.333333333333
 11
435.222767353058
 21
627.333333333333
  0
LINE
  5
19C
100
AcDbEntity
  8
0
100
AcDbLine
 62
     3
  6
CONTINUOUS
 10
470.666666666667
 20
499.333333333333
 11
435.222767353058
 21
499.333333333333
  0
ENDBLK
  5
19D
100
AcDbEntity
  8
0
100
AcDbBlockEnd
  0
BLOCK
  5
19E
100
AcDbEntity
  8
0
100
AcDbBlockBegin
  2
*D12
 70
    65
 10
0.0
 20
0.0
  0
MTEXT
  5
19F
100
AcDbEntity
  8
0
100
AcDbMText
 62
     0
  6
CONTINUOUS
 10
442.945044755936
 20
561.848333333334
 40
3.000000000000
 41
0.000000000000
 71
     5
 72
     1
 11
0.000000000000
 21
1.000000000000
  1
\A1;100
  0
LINE
  5
1A0
100
AcDbEntity
  8
0
100
AcDbLine
 62
     3
  6
CONTINUOUS
 10
445.945044755936
 20
513.333333333334
 11
445.945044755936
 21
613.333333333333
  0
INSERT
  5
1A1
100
AcDbEntity
  8
0
100
AcDbBlockReference
 62
     3
  6
CONTINUOUS
  2
_OPEN
 10
445.945045
 20
513.333333
 41
3.000000
 42
3.000000
 50
270.000000
  0
INSERT
  5
1A2
100
AcDbEntity
  8
0
100
AcDbBlockReference
 62
     3
  6
CONTINUOUS
  2
_OPEN
 10
445.945045
 20
613.333333
 41
3.000000
 42
3.000000
 50
90.000000
  0
LINE
  5
1A3
100
AcDbEntity
  8
0
100
AcDbLine
 62
     3
  6
CONTINUOUS
 10
486.666666666666
 20
513.333333333334
 11
444.945044755936
 21
513.333333333334
  0
LINE
  5
1A4
100
AcDbEntity
  8
0
100
AcDbLine
 62
     3
  6
CONTINUOUS
 10
486.666666666667
 20
613.333333333333
 11
444.945044755936
 21
613.333333333333
  0
ENDBLK
  5
1A5
100
AcDbEntity
  8
0
100
AcDbBlockEnd
  0
BLOCK
  5
1A6
100
AcDbEntity
  8
0
100
AcDbBlockBegin
  2
*D13
 70
    65
 10
0.0
 20
0.0
  0
MTEXT
  5
1A7
100
AcDbEntity
  8
0
100
AcDbMText
 62
     0
  6
CONTINUOUS
 10
450.598752498627
 20
562.343333333333
 40
3.000000000000
 41
0.000000000000
 71
     5
 72
     1
 11
0.000000000000
 21
1.000000000000
  1
\A1;74
  0
LINE
  5
1A8
100
AcDbEntity
  8
0
100
AcDbLine
 62
     3
  6
CONTINUOUS
 10
453.598752498627
 20
526.333333333333
 11
453.598752498627
 21
600.333333333333
  0
INSERT
  5
1A9
100
AcDbEntity
  8
0
100
AcDbBlockReference
 62
     3
  6
CONTINUOUS
  2
_OPEN
 10
453.598752
 20
526.333333
 41
3.000000
 42
3.000000
 50
270.000000
  0
INSERT
  5
1AA
100
AcDbEntity
  8
0
100
AcDbBlockReference
 62
     3
  6
CONTINUOUS
  2
_OPEN
 10
453.598752
 20
600.333333
 41
3.000000
 42
3.000000
 50
90.000000
  0
LINE
  5
1AB
100
AcDbEntity
  8
0
100
AcDbLine
 62
     3
  6
CONTINUOUS
 10
499.666666666667
 20
526.333333333333
 11
452.598752498627
 21
526.333333333333
  0
LINE
  5
1AC
100
AcDbEntity
  8
0
100
AcDbLine
 62
     3
  6
CONTINUOUS
 10
499.666666666667
 20
600.333333333333
 11
452.598752498627
 21
600.333333333333
  0
ENDBLK
  5
1AD
100
AcDbEntity
  8
0
100
AcDbBlockEnd
  0
ENDSEC
  0
SECTION
  2
ENTITIES
  0
TEXT
  5
1AE
100
AcDbEntity
  8
0
100
AcDbText
 62
     0
  6
CONTINUOUS
 10
671.364120353979
 20
207.748091459274
 40
3.000000000000
 41
1.000000000000
 50
0.000000000000
  1
※DCファン、ガードは予告無く変更する場合がございます
100
AcDbText
  0
TEXT
  5
1AF
100
AcDbEntity
  8
0
100
AcDbText
 62
     0
  6
CONTINUOUS
 10
671.364120353979
 20
213.953771382570
 40
3.000000000000
 41
1.000000000000
 50
0.000000000000
  1
※図面は予告無く変更する場合がございます
100
AcDbText
  0
DIMENSION
  5
1B0
100
AcDbEntity
  8
0
100
AcDbDimension
 62
     3
  6
CONTINUOUS
  2
*D0
 10
619.236406
 20
481.333332
 11
619.236406
 21
494.363333
 70
   160
  1
200%%p30
  3
DIM1
100
AcDbAlignedDimension
 13
583.666667
 23
513.333333
 14
567.166667
 24
481.333333
 50
90.000000
100
AcDbRotatedDimension
1001
ACAD
1000
DSTYLE
1002
{
1070
   271
1070
     1
1002
}
  0
TEXT
  5
1B1
100
AcDbEntity
  8
0
100
AcDbText
 62
     0
  6
HIDDEN
 48
10.0
 10
554.180558292505
 20
396.554836139083
 40
6.000000000000
 41
1.000000000000
 50
0.000000000000
  1
%%c2.4 L=(30)
100
AcDbText
  0
LINE
  5
1B2
100
AcDbEntity
  8
0
100
AcDbLine
 62
     0
  6
CONTINUOUS
 10
604.000000000000
 20
194.500000000000
 11
684.000000000000
 21
167.500000000000
  0
LEADER
  5
1B3
100
AcDbEntity
  8
0
100
AcDbLeader
 62
     3
  6
CONTINUOUS
  3
DIM1
 76
     2
 10
536.080397
 20
384.834495
 10
550.974017
 20
398.486980
 77
     3
1001
ACAD
1000
DSTYLE
1002
{
1070
     6
1000
_OPEN
1070
    41
1040
3.000000000000
1002
}
  0
ARC
  5
1B4
100
AcDbEntity
  8
0
100
AcDbCircle
 62
     3
  6
CONTINUOUS
 10
535.666666666667
 20
384.564196993907
 40
1.300000000000
100
AcDbArc
 50
179.999999990317
 51
359.999999980633
  0
CIRCLE
  5
1B5
100
AcDbEntity
  8
0
100
AcDbCircle
 62
     3
  6
CONTINUOUS
 10
535.666666666667
 20
384.784196993907
 40
1.200000000000
  0
DIMENSION
  5
1B6
100
AcDbEntity
  8
0
100
AcDbDimension
 62
     3
  6
CONTINUOUS
  2
*D1
 10
426.653669
 20
455.833335
 11
426.653669
 21
539.108333
 70
   160
  1
(174)
  3
DIM1
100
AcDbAlignedDimension
 13
473.666667
 23
627.333333
 14
498.198038
 24
455.833333
 50
90.000000
100
AcDbRotatedDimension
1001
ACAD
1000
DSTYLE
1002
{
1070
   271
1070
     1
1002
}
  0
ARC
  5
1B7
100
AcDbEntity
  8
0
100
AcDbCircle
 62
     2
  6
CONTINUOUS
 10
746.535295816768
 20
460.033333333333
 40
0.800000000000
100
AcDbArc
 50
89.999999995158
 51
134.999999992730
  0
LINE
  5
1B8
100
AcDbEntity
  8
0
100
AcDbLine
 62
     2
  6
CONTINUOUS
 10
713.582028145678
 20
460.833333333333
 11
653.516666666667
 21
460.833333333333
  0
ARC
  5
1B9
100
AcDbEntity
  8
0
100
AcDbCircle
 62
     2
  6
CONTINUOUS
 10
664.798037516565
 20
460.033333333333
 40
0.800000000000
100
AcDbArc
 50
44.999999997520
 51
89.999999995158
  0
LINE
  5
1BA
100
AcDbEntity
  8
0
100
AcDbLine
 62
     3
  6
CONTINUOUS
 10
755.166666666667
 20
458.733333333333
 11
755.166666666667
 21
459.233333333333
  0
LINE
  5
1BB
100
AcDbEntity
  8
0
100
AcDbLine
 62
     3
  6
CONTINUOUS
 10
760.816666666667
 20
458.733333333333
 11
760.816666666667
 21
458.033333333333
  0
LINE
  5
1BC
100
AcDbEntity
  8
0
100
AcDbLine
 62
     3
  6
CONTINUOUS
 10
760.966666666667
 20
458.733333333333
 11
760.966666666667
 21
459.233333333333
  0
LINE
  5
1BD
100
AcDbEntity
  8
0
100
AcDbLine
 62
     3
  6
CONTINUOUS
 10
755.316666666667
 20
458.733333333333
 11
755.316666666667
 21
458.033333333333
  0
LINE
  5
1BE
100
AcDbEntity
  8
0
100
AcDbLine
 62
     3
  6
CONTINUOUS
 10
760.966666666667
 20
458.733333333333
 11
755.166666666667
 21
458.733333333333
  0
LINE
  5
1BF
100
AcDbEntity
  8
0
100
AcDbLine
 62
     3
  6
CONTINUOUS
 10
755.316666666667
 20
458.033333333333
 11
760.816666666667
 21
458.033333333333
  0
ARC
  5
1C0
100
AcDbEntity
  8
0
100
AcDbCircle
 62
     3
  6
CONTINUOUS
 10
758.066666666667
 20
463.033333333333
 40
7.000000000000
100
AcDbArc
 50
253.042236686368
 51
286.957763284547
  0
ARC
  5
1C1
100
AcDbEntity
  8
0
100
AcDbCircle
 62
     3
  6
CONTINUOUS
 10
759.816666666667
 20
457.294213191709
 40
1.000000000000
100
AcDbArc
 50
286.957763284548
 51
359.999999980599
  0
ARC
  5
1C2
100
AcDbEntity
  8
0
100
AcDbCircle
 62
     3
  6
CONTINUOUS
 10
756.316666666667
 20
457.294213191709
 40
1.000000000000
100
AcDbArc
 50
179.999999990317
 51
253.042236686368
  0
LINE
  5
1C3
100
AcDbEntity
  8
0
100
AcDbLine
 62
     3
  6
CONTINUOUS
 10
755.316666666667
 20
457.294213191709
 11
755.316666666667
 21
458.033333333333
  0
LINE
  5
1C4
100
AcDbEntity
  8
0
100
AcDbLine
 62
     3
  6
CONTINUOUS
 10
760.816666666667
 20
457.294213191709
 11
760.816666666667
 21
458.033333333333
  0
LINE
  5
1C5
100
AcDbEntity
  8
0
100
AcDbLine
 62
     3
  6
CONTINUOUS
 10
755.316666666667
 20
458.033333333333
 11
760.816666666667
 21
458.033333333333
  0
LINE
  5
1C6
100
AcDbEntity
  8
0
100
AcDbLine
 62
     3
  6
CONTINUOUS
 10
650.366666666667
 20
458.733333333333
 11
650.366666666667
 21
459.233333333333
  0
LINE
  5
1C7
100
AcDbEntity
  8
0
100
AcDbLine
 62
     3
  6
CONTINUOUS
 10
656.016666666667
 20
458.733333333333
 11
656.016666666667
 21
458.033333333333
  0
LINE
  5
1C8
100
AcDbEntity
  8
0
100
AcDbLine
 62
     3
  6
CONTINUOUS
 10
656.166666666667
 20
458.733333333333
 11
656.166666666667
 21
459.233333333333
  0
LINE
  5
1C9
100
AcDbEntity
  8
0
100
AcDbLine
 62
     3
  6
CONTINUOUS
 10
650.516666666667
 20
458.733333333333
 11
650.516666666667
 21
458.033333333333
  0
LINE
  5
1CA
100
AcDbEntity
  8
0
100
AcDbLine
 62
     3
  6
CONTINUOUS
 10
656.166666666667
 20
458.733333333333
 11
650.366666666667
 21
458.733333333333
  0
LINE
  5
1CB
100
AcDbEntity
  8
0
100
AcDbLine
 62
     3
  6
CONTINUOUS
 10
650.516666666667
 20
458.033333333333
 11
656.016666666667
 21
458.033333333333
  0
ARC
  5
1CC
100
AcDbEntity
  8
0
100
AcDbCircle
 62
     3
  6
CONTINUOUS
 10
653.266666666667
 20
463.033333333333
 40
7.000000000000
100
AcDbArc
 50
253.042236686368
 51
286.957763284547
  0
ARC
  5
1CD
100
AcDbEntity
  8
0
100
AcDbCircle
 62
     3
  6
CONTINUOUS
 10
655.016666666667
 20
457.294213191709
 40
1.000000000000
100
AcDbArc
 50
286.957763284548
 51
359.999999980599
  0
ARC
  5
1CE
100
AcDbEntity
  8
0
100
AcDbCircle
 62
     3
  6
CONTINUOUS
 10
651.516666666667
 20
457.294213191709
 40
1.000000000000
100
AcDbArc
 50
179.999999990317
 51
253.042236686368
  0
LINE
  5
1CF
100
AcDbEntity
  8
0
100
AcDbLine
 62
     3
  6
CONTINUOUS
 10
650.516666666667
 20
457.294213191709
 11
650.516666666667
 21
458.033333333333
  0
LINE
  5
1D0
100
AcDbEntity
  8
0
100
AcDbLine
 62
     3
  6
CONTINUOUS
 10
656.016666666667
 20
457.294213191709
 11
656.016666666667
 21
458.033333333333
  0
LINE
  5
1D1
100
AcDbEntity
  8
0
100
AcDbLine
 62
     3
  6
CONTINUOUS
 10
650.516666666667
 20
458.033333333333
 11
656.016666666667
 21
458.033333333333
  0
LINE
  5
1D2
100
AcDbEntity
  8
0
100
AcDbLine
 62
     2
  6
CONTINUOUS
 10
702.891435798767
 20
455.833333333333
 11
681.598037516565
 21
455.833333333333
  0
LINE
  5
1D3
100
AcDbEntity
  8
0
100
AcDbLine
 62
     2
  6
CONTINUOUS
 10
681.598037516565
 20
455.833333333333
 11
668.198037516565
 21
455.833333333333
  0
LINE
  5
1D4
100
AcDbEntity
  8
0
100
AcDbLine
 62
     2
  6
CONTINUOUS
 10
681.929408366464
 20
457.433333333333
 11
668.529408366464
 21
457.433333333333
  0
LINE
  5
1D5
100
AcDbEntity
  8
0
100
AcDbLine
 62
     2
  6
CONTINUOUS
 10
680.329408366464
 20
459.033333333333
 11
666.929408366464
 21
459.033333333333
  0
LINE
  5
1D6
100
AcDbEntity
  8
0
100
AcDbLine
 62
     2
  6
CONTINUOUS
 10
658.129408366464
 20
459.033333333333
 11
661.366666666667
 21
459.033333333333
  0
LINE
  5
1D7
100
AcDbEntity
  8
0
100
AcDbLine
 62
     2
  6
CONTINUOUS
 10
659.729408366464
 20
457.433333333333
 11
662.966666666667
 21
457.433333333333
  0
LINE
  5
1D8
100
AcDbEntity
  8
0
100
AcDbLine
 62
     2
  6
CONTINUOUS
 10
668.529408366464
 20
457.433333333333
 11
665.363722941515
 21
460.599018758283
  0
LINE
  5
1D9
100
AcDbEntity
  8
0
100
AcDbLine
 62
     2
  6
CONTINUOUS
 10
667.632352091616
 20
456.067647908384
 11
664.466666666667
 21
459.233333333333
  0
LINE
  5
1DA
100
AcDbEntity
  8
0
100
AcDbLine
 62
     2
  6
CONTINUOUS
 10
661.166666666667
 20
459.233333333333
 11
661.001327620399
 21
459.233333333333
  0
LINE
  5
1DB
100
AcDbEntity
  8
0
100
AcDbLine
 62
     2
  6
CONTINUOUS
 10
661.001327620399
 20
459.233333333333
 11
650.216666666667
 21
459.233333333333
  0
LINE
  5
1DC
100
AcDbEntity
  8
0
100
AcDbLine
 62
     2
  6
CONTINUOUS
 10
745.969610391819
 20
460.599018758283
 11
742.803924966870
 21
457.433333333333
  0
LINE
  5
1DD
100
AcDbEntity
  8
0
100
AcDbLine
 62
     2
  6
CONTINUOUS
 10
746.866666666667
 20
459.233333333333
 11
743.700981241718
 21
456.067647908384
  0
LINE
  5
1DE
100
AcDbEntity
  8
0
100
AcDbLine
 62
     2
  6
CONTINUOUS
 10
750.332005712935
 20
459.233333333333
 11
750.166666666667
 21
459.233333333333
  0
LINE
  5
1DF
100
AcDbEntity
  8
0
100
AcDbLine
 62
     2
  6
CONTINUOUS
 10
761.116666666667
 20
459.233333333333
 11
750.332005712935
 21
459.233333333333
  0
LINE
  5
1E0
100
AcDbEntity
  8
0
100
AcDbLine
 62
     2
  6
CONTINUOUS
 10
702.891435798767
 20
457.433333333333
 11
708.441897534567
 21
457.433333333333
  0
LINE
  5
1E1
100
AcDbEntity
  8
0
100
AcDbLine
 62
     2
  6
CONTINUOUS
 10
708.441897534567
 20
457.433333333333
 11
729.403924966870
 21
457.433333333333
  0
LINE
  5
1E2
100
AcDbEntity
  8
0
100
AcDbLine
 62
     2
  6
CONTINUOUS
 10
748.366666666667
 20
457.433333333333
 11
751.603924966870
 21
457.433333333333
  0
LINE
  5
1E3
100
AcDbEntity
  8
0
100
AcDbLine
 62
     2
  6
CONTINUOUS
 10
749.966666666667
 20
459.033333333333
 11
753.203924966870
 21
459.033333333333
  0
LINE
  5
1E4
100
AcDbEntity
  8
0
100
AcDbLine
 62
     2
  6
CONTINUOUS
 10
656.016666666667
 20
457.433333333333
 11
662.966666666667
 21
457.433333333333
  0
LINE
  5
1E5
100
AcDbEntity
  8
0
100
AcDbLine
 62
     2
  6
CONTINUOUS
 10
656.166666666667
 20
459.033333333333
 11
661.366666666667
 21
459.033333333333
  0
LINE
  5
1E6
100
AcDbEntity
  8
0
100
AcDbLine
 62
     2
  6
CONTINUOUS
 10
729.735295816768
 20
455.833333333333
 11
743.135295816768
 21
455.833333333333
  0
LINE
  5
1E7
100
AcDbEntity
  8
0
100
AcDbLine
 62
     2
  6
CONTINUOUS
 10
729.403924966870
 20
457.433333333333
 11
742.803924966870
 21
457.433333333333
  0
LINE
  5
1E8
100
AcDbEntity
  8
0
100
AcDbLine
 62
     2
  6
CONTINUOUS
 10
731.003924966870
 20
459.033333333333
 11
744.403924966870
 21
459.033333333333
  0
LINE
  5
1E9
100
AcDbEntity
  8
0
100
AcDbLine
 62
     2
  6
CONTINUOUS
 10
650.516666666667
 20
457.433333333333
 11
648.666666666667
 21
457.433333333333
  0
LINE
  5
1EA
100
AcDbEntity
  8
0
100
AcDbLine
 62
     2
  6
CONTINUOUS
 10
650.366666666667
 20
459.033333333333
 11
648.666666666667
 21
459.033333333333
  0
LINE
  5
1EB
100
AcDbEntity
  8
0
100
AcDbLine
 62
     2
  6
CONTINUOUS
 10
750.332005712935
 20
459.233333333333
 11
746.866666666667
 21
459.233333333333
  0
LINE
  5
1EC
100
AcDbEntity
  8
0
100
AcDbLine
 62
     2
  6
CONTINUOUS
 10
749.966666666667
 20
459.033333333333
 11
747.707319940117
 21
459.033333333333
  0
LINE
  5
1ED
100
AcDbEntity
  8
0
100
AcDbLine
 62
     2
  6
CONTINUOUS
 10
748.366666666667
 20
457.433333333333
 11
746.103924966870
 21
457.433333333333
  0
LINE
  5
1EE
100
AcDbEntity
  8
0
100
AcDbLine
 62
     2
  6
CONTINUOUS
 10
661.166666666667
 20
459.233333333333
 11
664.466666666667
 21
459.233333333333
  0
LINE
  5
1EF
100
AcDbEntity
  8
0
100
AcDbLine
 62
     2
  6
CONTINUOUS
 10
661.366666666667
 20
459.033333333333
 11
663.616758492047
 21
459.033333333333
  0
LINE
  5
1F0
100
AcDbEntity
  8
0
100
AcDbLine
 62
     2
  6
CONTINUOUS
 10
662.966666666667
 20
457.433333333333
 11
665.229408366464
 21
457.433333333333
  0
LINE
  5
1F1
100
AcDbEntity
  8
0
100
AcDbLine
 62
     2
  6
CONTINUOUS
 10
666.266666666667
 20
457.433333333333
 11
665.229408366464
 21
457.433333333333
  0
LINE
  5
1F2
100
AcDbEntity
  8
0
100
AcDbLine
 62
     2
  6
CONTINUOUS
 10
664.666666666667
 20
459.033333333333
 11
663.616758492047
 21
459.033333333333
  0
LINE
  5
1F3
100
AcDbEntity
  8
0
100
AcDbLine
 62
     2
  6
CONTINUOUS
 10
745.066666666667
 20
457.433333333333
 11
746.103924966870
 21
457.433333333333
  0
LINE
  5
1F4
100
AcDbEntity
  8
0
100
AcDbLine
 62
     2
  6
CONTINUOUS
 10
746.666666666667
 20
459.033333333333
 11
747.707319940117
 21
459.033333333333
  0
ARC
  5
1F5
100
AcDbEntity
  8
0
100
AcDbCircle
 62
     2
  6
CONTINUOUS
 10
668.198037516565
 20
456.633333333333
 40
0.800000000000
100
AcDbArc
 50
224.999999987866
 51
269.999999985441
  0
ARC
  5
1F6
100
AcDbEntity
  8
0
100
AcDbCircle
 62
     2
  6
CONTINUOUS
 10
650.216666666667
 20
460.033333333333
 40
0.800000000000
100
AcDbArc
 50
179.999999990300
 51
269.999999985441
  0
ARC
  5
1F7
100
AcDbEntity
  8
0
100
AcDbCircle
 62
     2
  6
CONTINUOUS
 10
650.216666666667
 20
460.033333333333
 40
0.800000000000
100
AcDbArc
 50
89.999999995158
 51
179.999999990300
  0
ARC
  5
1F8
100
AcDbEntity
  8
0
100
AcDbCircle
 62
     2
  6
CONTINUOUS
 10
743.135295816768
 20
456.633333333333
 40
0.800000000000
100
AcDbArc
 50
269.999999985441
 51
314.999999983013
  0
ARC
  5
1F9
100
AcDbEntity
  8
0
100
AcDbCircle
 62
     2
  6
CONTINUOUS
 10
761.116666666667
 20
460.033333333333
 40
0.800000000000
100
AcDbArc
 50
269.999999985441
 51
359.999999980582
  0
ARC
  5
1FA
100
AcDbEntity
  8
0
100
AcDbCircle
 62
     2
  6
CONTINUOUS
 10
761.116666666667
 20
460.033333333333
 40
0.800000000000
100
AcDbArc
 50
359.999999980582
 51
89.999999975792
  0
ARC
  5
1FB
100
AcDbEntity
  8
0
100
AcDbCircle
 62
     2
  6
CONTINUOUS
 10
702.891435798767
 20
456.633333333333
 40
0.800000000000
100
AcDbArc
 50
269.999999985441
 51
89.999999975792
  0
ARC
  5
1FC
100
AcDbEntity
  8
0
100
AcDbCircle
 62
     2
  6
CONTINUOUS
 10
762.666666666667
 20
458.233333333333
 40
0.800000000000
100
AcDbArc
 50
359.999999980582
 51
89.999999975792
  0
ARC
  5
1FD
100
AcDbEntity
  8
0
100
AcDbCircle
 62
     2
  6
CONTINUOUS
 10
762.666666666667
 20
458.233333333333
 40
0.800000000000
100
AcDbArc
 50
269.999999985441
 51
359.999999980582
  0
ARC
  5
1FE
100
AcDbEntity
  8
0
100
AcDbCircle
 62
     2
  6
CONTINUOUS
 10
648.666666666667
 20
458.233333333333
 40
0.800000000000
100
AcDbArc
 50
89.999999995158
 51
179.999999990300
  0
ARC
  5
1FF
100
AcDbEntity
  8
0
100
AcDbCircle
 62
     2
  6
CONTINUOUS
 10
648.666666666667
 20
458.233333333333
 40
0.800000000000
100
AcDbArc
 50
179.999999990300
 51
269.999999985441
  0
LINE
  5
200
100
AcDbEntity
  8
0
100
AcDbLine
 62
     2
  6
CONTINUOUS
 10
680.329408366464
 20
459.033333333333
 11
731.003924966870
 21
459.033333333333
  0
LINE
  5
201
100
AcDbEntity
  8
0
100
AcDbLine
 62
     2
  6
CONTINUOUS
 10
681.929408366464
 20
457.433333333333
 11
702.891435798767
 21
457.433333333333
  0
ARC
  5
202
100
AcDbEntity
  8
0
100
AcDbCircle
 62
     2
  6
CONTINUOUS
 10
708.441897534567
 20
456.633333333333
 40
0.800000000000
100
AcDbArc
 50
89.999999995158
 51
269.999999985441
  0
LINE
  5
203
100
AcDbEntity
  8
0
100
AcDbLine
 62
     2
  6
CONTINUOUS
 10
708.441897534567
 20
455.833333333333
 11
729.735295816768
 21
455.833333333333
  0
LINE
  5
204
100
AcDbEntity
  8
0
100
AcDbLine
 62
     2
  6
CONTINUOUS
 10
755.316666666667
 20
457.433333333333
 11
748.366666666667
 21
457.433333333333
  0
LINE
  5
205
100
AcDbEntity
  8
0
100
AcDbLine
 62
     2
  6
CONTINUOUS
 10
760.816666666667
 20
457.433333333333
 11
762.666666666667
 21
457.433333333333
  0
LINE
  5
206
100
AcDbEntity
  8
0
100
AcDbLine
 62
     2
  6
CONTINUOUS
 10
755.166666666667
 20
459.033333333333
 11
749.966666666667
 21
459.033333333333
  0
LINE
  5
207
100
AcDbEntity
  8
0
100
AcDbLine
 62
     2
  6
CONTINUOUS
 10
760.966666666667
 20
459.033333333333
 11
762.666666666667
 21
459.033333333333
  0
LINE
  5
208
100
AcDbEntity
  8
0
100
AcDbLine
 62
     3
  6
CONTINUOUS
 10
585.166666666667
 20
458.733333333333
 11
585.166666666667
 21
459.233333333333
  0
LINE
  5
209
100
AcDbEntity
  8
0
100
AcDbLine
 62
     3
  6
CONTINUOUS
 10
590.816666666667
 20
458.733333333333
 11
590.816666666667
 21
458.033333333333
  0
LINE
  5
20A
100
AcDbEntity
  8
0
100
AcDbLine
 62
     3
  6
CONTINUOUS
 10
590.966666666667
 20
458.733333333333
 11
590.966666666667
 21
459.233333333333
  0
LINE
  5
20B
100
AcDbEntity
  8
0
100
AcDbLine
 62
     3
  6
CONTINUOUS
 10
585.316666666667
 20
458.733333333333
 11
585.316666666667
 21
458.033333333333
  0
LINE
  5
20C
100
AcDbEntity
  8
0
100
AcDbLine
 62
     3
  6
CONTINUOUS
 10
590.966666666667
 20
458.733333333333
 11
585.166666666667
 21
458.733333333333
  0
LINE
  5
20D
100
AcDbEntity
  8
0
100
AcDbLine
 62
     3
  6
CONTINUOUS
 10
585.316666666667
 20
458.033333333333
 11
590.816666666667
 21
458.033333333333
  0
ARC
  5
20E
100
AcDbEntity
  8
0
100
AcDbCircle
 62
     3
  6
CONTINUOUS
 10
588.066666666667
 20
463.033333333333
 40
7.000000000000
100
AcDbArc
 50
253.042236686368
 51
286.957763284547
  0
ARC
  5
20F
100
AcDbEntity
  8
0
100
AcDbCircle
 62
     3
  6
CONTINUOUS
 10
589.816666666667
 20
457.294213191709
 40
1.000000000000
100
AcDbArc
 50
286.957763284548
 51
359.999999980599
  0
ARC
  5
210
100
AcDbEntity
  8
0
100
AcDbCircle
 62
     3
  6
CONTINUOUS
 10
586.316666666667
 20
457.294213191709
 40
1.000000000000
100
AcDbArc
 50
179.999999990317
 51
253.042236686368
  0
LINE
  5
211
100
AcDbEntity
  8
0
100
AcDbLine
 62
     3
  6
CONTINUOUS
 10
585.316666666667
 20
457.294213191709
 11
585.316666666667
 21
458.033333333333
  0
LINE
  5
212
100
AcDbEntity
  8
0
100
AcDbLine
 62
     3
  6
CONTINUOUS
 10
590.816666666667
 20
457.294213191709
 11
590.816666666667
 21
458.033333333333
  0
LINE
  5
213
100
AcDbEntity
  8
0
100
AcDbLine
 62
     3
  6
CONTINUOUS
 10
585.316666666667
 20
458.033333333333
 11
590.816666666667
 21
458.033333333333
  0
LINE
  5
214
100
AcDbEntity
  8
0
100
AcDbLine
 62
     3
  6
CONTINUOUS
 10
480.366666666667
 20
458.733333333333
 11
480.366666666667
 21
459.233333333333
  0
LINE
  5
215
100
AcDbEntity
  8
0
100
AcDbLine
 62
     3
  6
CONTINUOUS
 10
486.016666666667
 20
458.733333333333
 11
486.016666666667
 21
458.033333333333
  0
LINE
  5
216
100
AcDbEntity
  8
0
100
AcDbLine
 62
     3
  6
CONTINUOUS
 10
486.166666666667
 20
458.733333333333
 11
486.166666666667
 21
459.233333333333
  0
LINE
  5
217
100
AcDbEntity
  8
0
100
AcDbLine
 62
     3
  6
CONTINUOUS
 10
480.516666666667
 20
458.733333333333
 11
480.516666666667
 21
458.033333333333
  0
LINE
  5
218
100
AcDbEntity
  8
0
100
AcDbLine
 62
     3
  6
CONTINUOUS
 10
486.166666666667
 20
458.733333333333
 11
480.366666666667
 21
458.733333333333
  0
LINE
  5
219
100
AcDbEntity
  8
0
100
AcDbLine
 62
     3
  6
CONTINUOUS
 10
480.516666666667
 20
458.033333333333
 11
486.016666666667
 21
458.033333333333
  0
ARC
  5
21A
100
AcDbEntity
  8
0
100
AcDbCircle
 62
     3
  6
CONTINUOUS
 10
483.266666666667
 20
463.033333333333
 40
7.000000000000
100
AcDbArc
 50
253.042236686368
 51
286.957763284547
  0
ARC
  5
21B
100
AcDbEntity
  8
0
100
AcDbCircle
 62
     3
  6
CONTINUOUS
 10
485.016666666667
 20
457.294213191709
 40
1.000000000000
100
AcDbArc
 50
286.957763284548
 51
359.999999980599
  0
ARC
  5
21C
100
AcDbEntity
  8
0
100
AcDbCircle
 62
     3
  6
CONTINUOUS
 10
481.516666666667
 20
457.294213191709
 40
1.000000000000
100
AcDbArc
 50
179.999999990317
 51
253.042236686368
  0
LINE
  5
21D
100
AcDbEntity
  8
0
100
AcDbLine
 62
     3
  6
CONTINUOUS
 10
480.516666666667
 20
457.294213191709
 11
480.516666666667
 21
458.033333333333
  0
LINE
  5
21E
100
AcDbEntity
  8
0
100
AcDbLine
 62
     3
  6
CONTINUOUS
 10
486.016666666667
 20
457.294213191709
 11
486.016666666667
 21
458.033333333333
  0
LINE
  5
21F
100
AcDbEntity
  8
0
100
AcDbLine
 62
     3
  6
CONTINUOUS
 10
480.516666666667
 20
458.033333333333
 11
486.016666666667
 21
458.033333333333
  0
CIRCLE
  5
220
100
AcDbEntity
  8
0
100
AcDbCircle
 62
     3
  6
CONTINUOUS
 10
483.266666666667
 20
262.164196993907
 40
2.900000000000
  0
ARC
  5
221
100
AcDbEntity
  8
0
100
AcDbCircle
 62
     3
  6
CONTINUOUS
 10
483.266666666667
 20
262.164196993907
 40
1.750000000000
100
AcDbArc
 50
83.849360160163
 51
89.999999995141
  0
ARC
  5
222
100
AcDbEntity
  8
0
100
AcDbCircle
 62
     3
  6
CONTINUOUS
 10
483.266666666667
 20
262.164196993907
 40
1.750000000000
100
AcDbArc
 50
269.999999985424
 51
276.150639820402
  0
ARC
  5
223
100
AcDbEntity
  8
0
100
AcDbCircle
 62
     3
  6
CONTINUOUS
 10
483.266666666667
 20
262.164196993907
 40
1.750000000000
100
AcDbArc
 50
0.000000000000
 51
6.150639834980
  0
ARC
  5
224
100
AcDbEntity
  8
0
100
AcDbCircle
 62
     3
  6
CONTINUOUS
 10
483.266666666667
 20
262.164196993907
 40
1.750000000000
100
AcDbArc
 50
353.849360145586
 51
359.999999980633
  0
ARC
  5
225
100
AcDbEntity
  8
0
100
AcDbCircle
 62
     3
  6
CONTINUOUS
 10
483.266666666667
 20
262.164196993907
 40
1.750000000000
100
AcDbArc
 50
173.849360155303
 51
179.999999990283
  0
ARC
  5
226
100
AcDbEntity
  8
0
100
AcDbCircle
 62
     3
  6
CONTINUOUS
 10
483.266666666667
 20
262.164196993907
 40
1.750000000000
100
AcDbArc
 50
179.999999990283
 51
186.150639825262
  0
ARC
  5
227
100
AcDbEntity
  8
0
100
AcDbCircle
 62
     3
  6
CONTINUOUS
 10
485.006566666667
 20
260.424296993907
 40
1.552400000000
100
AcDbArc
 50
89.999026979631
 51
180.000973005793
  0
ARC
  5
228
100
AcDbEntity
  8
0
100
AcDbCircle
 62
     3
  6
CONTINUOUS
 10
485.006566666667
 20
263.904096993907
 40
1.552400000000
100
AcDbArc
 50
179.999026974772
 51
270.000973000934
  0
ARC
  5
229
100
AcDbEntity
  8
0
100
AcDbCircle
 62
     3
  6
CONTINUOUS
 10
483.266666666667
 20
262.164196993907
 40
1.750000000000
100
AcDbArc
 50
89.999999995141
 51
96.150639830119
  0
ARC
  5
22A
100
AcDbEntity
  8
0
100
AcDbCircle
 62
     3
  6
CONTINUOUS
 10
483.266666666667
 20
262.164196993907
 40
1.750000000000
100
AcDbArc
 50
263.849360150446
 51
269.999999985424
  0
ARC
  5
22B
100
AcDbEntity
  8
0
100
AcDbCircle
 62
     3
  6
CONTINUOUS
 10
481.526766666667
 20
260.424296993907
 40
1.552400000000
100
AcDbArc
 50
359.999026965055
 51
90.000972991285
  0
ARC
  5
22C
100
AcDbEntity
  8
0
100
AcDbCircle
 62
     3
  6
CONTINUOUS
 10
481.526766666667
 20
263.904096993907
 40
1.552400000000
100
AcDbArc
 50
269.999026969914
 51
0.000972996143
  0
CIRCLE
  5
22D
100
AcDbEntity
  8
0
100
AcDbCircle
 62
     3
  6
CONTINUOUS
 10
483.266666666667
 20
262.164196993907
 40
2.750000000000
  0
CIRCLE
  5
22E
100
AcDbEntity
  8
0
100
AcDbCircle
 62
     3
  6
CONTINUOUS
 10
588.066666666667
 20
262.164196993907
 40
2.900000000000
  0
ARC
  5
22F
100
AcDbEntity
  8
0
100
AcDbCircle
 62
     3
  6
CONTINUOUS
 10
588.066666666667
 20
262.164196993907
 40
1.750000000000
100
AcDbArc
 50
83.849360160163
 51
89.999999995141
  0
ARC
  5
230
100
AcDbEntity
  8
0
100
AcDbCircle
 62
     3
  6
CONTINUOUS
 10
588.066666666667
 20
262.164196993907
 40
1.750000000000
100
AcDbArc
 50
269.999999985424
 51
276.150639820402
  0
ARC
  5
231
100
AcDbEntity
  8
0
100
AcDbCircle
 62
     3
  6
CONTINUOUS
 10
588.066666666667
 20
262.164196993907
 40
1.750000000000
100
AcDbArc
 50
0.000000000000
 51
6.150639834980
  0
ARC
  5
232
100
AcDbEntity
  8
0
100
AcDbCircle
 62
     3
  6
CONTINUOUS
 10
588.066666666667
 20
262.164196993907
 40
1.750000000000
100
AcDbArc
 50
353.849360145586
 51
359.999999980633
  0
ARC
  5
233
100
AcDbEntity
  8
0
100
AcDbCircle
 62
     3
  6
CONTINUOUS
 10
588.066666666667
 20
262.164196993907
 40
1.750000000000
100
AcDbArc
 50
173.849360155303
 51
179.999999990283
  0
ARC
  5
234
100
AcDbEntity
  8
0
100
AcDbCircle
 62
     3
  6
CONTINUOUS
 10
588.066666666667
 20
262.164196993907
 40
1.750000000000
100
AcDbArc
 50
179.999999990283
 51
186.150639825262
  0
ARC
  5
235
100
AcDbEntity
  8
0
100
AcDbCircle
 62
     3
  6
CONTINUOUS
 10
589.806566666667
 20
260.424296993907
 40
1.552400000000
100
AcDbArc
 50
89.999026979631
 51
180.000973005793
  0
ARC
  5
236
100
AcDbEntity
  8
0
100
AcDbCircle
 62
     3
  6
CONTINUOUS
 10
589.806566666667
 20
263.904096993907
 40
1.552400000000
100
AcDbArc
 50
179.999026974772
 51
270.000973000934
  0
ARC
  5
237
100
AcDbEntity
  8
0
100
AcDbCircle
 62
     3
  6
CONTINUOUS
 10
588.066666666667
 20
262.164196993907
 40
1.750000000000
100
AcDbArc
 50
89.999999995141
 51
96.150639830119
  0
ARC
  5
238
100
AcDbEntity
  8
0
100
AcDbCircle
 62
     3
  6
CONTINUOUS
 10
588.066666666667
 20
262.164196993907
 40
1.750000000000
100
AcDbArc
 50
263.849360150446
 51
269.999999985424
  0
ARC
  5
239
100
AcDbEntity
  8
0
100
AcDbCircle
 62
     3
  6
CONTINUOUS
 10
586.326766666667
 20
260.424296993907
 40
1.552400000000
100
AcDbArc
 50
359.999026965055
 51
90.000972991285
  0
ARC
  5
23A
100
AcDbEntity
  8
0
100
AcDbCircle
 62
     3
  6
CONTINUOUS
 10
586.326766666667
 20
263.904096993907
 40
1.552400000000
100
AcDbArc
 50
269.999026969914
 51
0.000972996143
  0
CIRCLE
  5
23B
100
AcDbEntity
  8
0
100
AcDbCircle
 62
     3
  6
CONTINUOUS
 10
588.066666666667
 20
262.164196993907
 40
2.750000000000
  0
CIRCLE
  5
23C
100
AcDbEntity
  8
0
100
AcDbCircle
 62
     3
  6
CONTINUOUS
 10
588.066666666667
 20
366.964196993907
 40
2.900000000000
  0
ARC
  5
23D
100
AcDbEntity
  8
0
100
AcDbCircle
 62
     3
  6
CONTINUOUS
 10
588.066666666667
 20
366.964196993907
 40
1.750000000000
100
AcDbArc
 50
83.849360160163
 51
89.999999995141
  0
ARC
  5
23E
100
AcDbEntity
  8
0
100
AcDbCircle
 62
     3
  6
CONTINUOUS
 10
588.066666666667
 20
366.964196993907
 40
1.750000000000
100
AcDbArc
 50
269.999999985424
 51
276.150639820402
  0
ARC
  5
23F
100
AcDbEntity
  8
0
100
AcDbCircle
 62
     3
  6
CONTINUOUS
 10
588.066666666667
 20
366.964196993907
 40
1.750000000000
100
AcDbArc
 50
0.000000000000
 51
6.150639834980
  0
ARC
  5
240
100
AcDbEntity
  8
0
100
AcDbCircle
 62
     3
  6
CONTINUOUS
 10
588.066666666667
 20
366.964196993907
 40
1.750000000000
100
AcDbArc
 50
353.849360145586
 51
359.999999980633
  0
ARC
  5
241
100
AcDbEntity
  8
0
100
AcDbCircle
 62
     3
  6
CONTINUOUS
 10
588.066666666667
 20
366.964196993907
 40
1.750000000000
100
AcDbArc
 50
173.849360155303
 51
179.999999990283
  0
ARC
  5
242
100
AcDbEntity
  8
0
100
AcDbCircle
 62
     3
  6
CONTINUOUS
 10
588.066666666667
 20
366.964196993907
 40
1.750000000000
100
AcDbArc
 50
179.999999990283
 51
186.150639825262
  0
ARC
  5
243
100
AcDbEntity
  8
0
100
AcDbCircle
 62
     3
  6
CONTINUOUS
 10
589.806566666667
 20
365.224296993907
 40
1.552400000000
100
AcDbArc
 50
89.999026979631
 51
180.000973005793
  0
ARC
  5
244
100
AcDbEntity
  8
0
100
AcDbCircle
 62
     3
  6
CONTINUOUS
 10
589.806566666667
 20
368.704096993907
 40
1.552400000000
100
AcDbArc
 50
179.999026974772
 51
270.000973000934
  0
ARC
  5
245
100
AcDbEntity
  8
0
100
AcDbCircle
 62
     3
  6
CONTINUOUS
 10
588.066666666667
 20
366.964196993907
 40
1.750000000000
100
AcDbArc
 50
89.999999995141
 51
96.150639830119
  0
ARC
  5
246
100
AcDbEntity
  8
0
100
AcDbCircle
 62
     3
  6
CONTINUOUS
 10
588.066666666667
 20
366.964196993907
 40
1.750000000000
100
AcDbArc
 50
263.849360150446
 51
269.999999985424
  0
ARC
  5
247
100
AcDbEntity
  8
0
100
AcDbCircle
 62
     3
  6
CONTINUOUS
 10
586.326766666667
 20
365.224296993907
 40
1.552400000000
100
AcDbArc
 50
359.999026965055
 51
90.000972991285
  0
ARC
  5
248
100
AcDbEntity
  8
0
100
AcDbCircle
 62
     3
  6
CONTINUOUS
 10
586.326766666667
 20
368.704096993907
 40
1.552400000000
100
AcDbArc
 50
269.999026969914
 51
0.000972996143
  0
CIRCLE
  5
249
100
AcDbEntity
  8
0
100
AcDbCircle
 62
     3
  6
CONTINUOUS
 10
588.066666666667
 20
366.964196993907
 40
2.750000000000
  0
CIRCLE
  5
24A
100
AcDbEntity
  8
0
100
AcDbCircle
 62
     3
  6
CONTINUOUS
 10
483.266666666667
 20
366.964196993907
 40
2.900000000000
  0
ARC
  5
24B
100
AcDbEntity
  8
0
100
AcDbCircle
 62
     3
  6
CONTINUOUS
 10
483.266666666667
 20
366.964196993907
 40
1.750000000000
100
AcDbArc
 50
83.849360160163
 51
89.999999995141
  0
ARC
  5
24C
100
AcDbEntity
  8
0
100
AcDbCircle
 62
     3
  6
CONTINUOUS
 10
483.266666666667
 20
366.964196993907
 40
1.750000000000
100
AcDbArc
 50
269.999999985424
 51
276.150639820402
  0
ARC
  5
24D
100
AcDbEntity
  8
0
100
AcDbCircle
 62
     3
  6
CONTINUOUS
 10
483.266666666667
 20
366.964196993907
 40
1.750000000000
100
AcDbArc
 50
0.000000000000
 51
6.150639834980
  0
ARC
  5
24E
100
AcDbEntity
  8
0
100
AcDbCircle
 62
     3
  6
CONTINUOUS
 10
483.266666666667
 20
366.964196993907
 40
1.750000000000
100
AcDbArc
 50
353.849360145586
 51
359.999999980633
  0
ARC
  5
24F
100
AcDbEntity
  8
0
100
AcDbCircle
 62
     3
  6
CONTINUOUS
 10
483.266666666667
 20
366.964196993907
 40
1.750000000000
100
AcDbArc
 50
173.849360155303
 51
179.999999990283
  0
ARC
  5
250
100
AcDbEntity
  8
0
100
AcDbCircle
 62
     3
  6
CONTINUOUS
 10
483.266666666667
 20
366.964196993907
 40
1.750000000000
100
AcDbArc
 50
179.999999990283
 51
186.150639825262
  0
ARC
  5
251
100
AcDbEntity
  8
0
100
AcDbCircle
 62
     3
  6
CONTINUOUS
 10
485.006566666667
 20
365.224296993907
 40
1.552400000000
100
AcDbArc
 50
89.999026979631
 51
180.000973005793
  0
ARC
  5
252
100
AcDbEntity
  8
0
100
AcDbCircle
 62
     3
  6
CONTINUOUS
 10
485.006566666667
 20
368.704096993907
 40
1.552400000000
100
AcDbArc
 50
179.999026974772
 51
270.000973000934
  0
ARC
  5
253
100
AcDbEntity
  8
0
100
AcDbCircle
 62
     3
  6
CONTINUOUS
 10
483.266666666667
 20
366.964196993907
 40
1.750000000000
100
AcDbArc
 50
89.999999995141
 51
96.150639830119
  0
ARC
  5
254
100
AcDbEntity
  8
0
100
AcDbCircle
 62
     3
  6
CONTINUOUS
 10
483.266666666667
 20
366.964196993907
 40
1.750000000000
100
AcDbArc
 50
263.849360150446
 51
269.999999985424
  0
ARC
  5
255
100
AcDbEntity
  8
0
100
AcDbCircle
 62
     3
  6
CONTINUOUS
 10
481.526766666667
 20
365.224296993907
 40
1.552400000000
100
AcDbArc
 50
359.999026965055
 51
90.000972991285
  0
ARC
  5
256
100
AcDbEntity
  8
0
100
AcDbCircle
 62
     3
  6
CONTINUOUS
 10
481.526766666667
 20
368.704096993907
 40
1.552400000000
100
AcDbArc
 50
269.999026969914
 51
0.000972996143
  0
CIRCLE
  5
257
100
AcDbEntity
  8
0
100
AcDbCircle
 62
     3
  6
CONTINUOUS
 10
483.266666666667
 20
366.964196993907
 40
2.750000000000
  0
DIMENSION
  5
258
100
AcDbEntity
  8
0
100
AcDbDimension
 62
     3
  6
CONTINUOUS
  2
*D2
 10
445.891189
 20
252.564198
 11
445.891189
 21
315.699197
 70
   160
  1
(135)
  3
DIM1
100
AcDbAlignedDimension
 13
498.666667
 23
386.784197
 14
471.666667
 24
252.564197
 50
90.000000
100
AcDbRotatedDimension
1001
ACAD
1000
DSTYLE
1002
{
1070
   271
1070
     1
1002
}
  0
DIMENSION
  5
259
100
AcDbEntity
  8
0
100
AcDbDimension
 62
     3
  6
CONTINUOUS
  2
*D3
 10
459.390731
 20
374.564197
 11
459.390731
 21
378.574197
 70
   160
  1
10
  3
DIM1
100
AcDbAlignedDimension
 13
485.666667
 23
384.564197
 14
471.666667
 24
374.564197
 50
90.000000
100
AcDbRotatedDimension
1001
ACAD
1000
DSTYLE
1002
{
1070
   271
1070
     1
1002
}
  0
LEADER
  5
25A
100
AcDbEntity
  8
0
100
AcDbLeader
 62
     3
  6
CONTINUOUS
  3
DIM1
 76
     3
 10
503.606957
 20
477.919479
 10
460.994609
 20
435.307131
 10
409.587946
 20
435.307131
 77
     3
1001
ACAD
1000
DSTYLE
1002
{
1070
     6
1000
_OPEN
1070
    41
1040
3.000000000000
1002
}
  0
TEXT
  5
25B
100
AcDbEntity
  8
0
100
AcDbText
 62
     0
  6
CONTINUOUS
 10
628.980082450638
 20
655.515686607886
 40
6.000000000000
 41
1.000000000000
 50
0.000000000000
  1
4-M4 L=4
100
AcDbText
  0
LEADER
  5
25C
100
AcDbEntity
  8
0
100
AcDbLeader
 62
     3
  6
CONTINUOUS
  3
DIM1
 76
     3
 10
561.940365
 20
589.208037
 10
625.238318
 20
652.505991
 10
682.744302
 20
652.505991
 77
     3
1001
ACAD
1000
DSTYLE
1002
{
1070
     6
1000
_OPEN
1070
    41
1040
3.000000000000
1002
}
  0
DIMENSION
  5
25D
100
AcDbEntity
  8
0
100
AcDbDimension
 62
     3
  6
CONTINUOUS
  2
*D4
 10
599.666668
 20
668.020158
 11
533.191667
 21
668.020158
 70
   160
  1
(128)
  3
DIM1
100
AcDbAlignedDimension
 13
471.666667
 23
627.333333
 14
599.666667
 24
627.333333
100
AcDbRotatedDimension
1001
ACAD
1000
DSTYLE
1002
{
1070
   271
1070
     1
1002
}
  0
DIMENSION
  5
25E
100
AcDbEntity
  8
0
100
AcDbDimension
 62
     3
  6
CONTINUOUS
  2
*D5
 10
585.666668
 20
657.677360
 11
534.181667
 21
657.677360
 70
   160
  1
100
  3
DIM1
100
AcDbAlignedDimension
 13
485.666667
 23
611.333333
 14
585.666667
 24
611.333333
100
AcDbRotatedDimension
1001
ACAD
1000
DSTYLE
1002
{
1070
   271
1070
     1
1002
}
  0
DIMENSION
  5
25F
100
AcDbEntity
  8
0
100
AcDbDimension
 62
     3
  6
CONTINUOUS
  2
*D6
 10
572.666668
 20
647.127707
 11
534.676667
 21
647.127707
 70
   160
  1
74
  3
DIM1
100
AcDbAlignedDimension
 13
498.666667
 23
598.333333
 14
572.666667
 24
598.333333
100
AcDbRotatedDimension
1001
ACAD
1000
DSTYLE
1002
{
1070
   271
1070
     1
1002
}
  0
DIMENSION
  5
260
100
AcDbEntity
  8
0
100
AcDbDimension
 62
     3
  6
CONTINUOUS
  2
*D7
 10
560.666668
 20
637.405472
 11
534.676667
 21
637.405472
 70
   160
  1
50
  3
DIM1
100
AcDbAlignedDimension
 13
510.666667
 23
590.333333
 14
560.666667
 24
593.607267
100
AcDbRotatedDimension
1001
ACAD
1000
DSTYLE
1002
{
1070
   271
1070
     1
1002
}
  0
DIMENSION
  5
261
100
AcDbEntity
  8
0
100
AcDbDimension
 62
     3
  6
CONTINUOUS
  2
*D8
 10
462.132390
 20
588.333335
 11
462.132390
 21
562.343333
 70
   160
  1
50
  3
DIM1
100
AcDbAlignedDimension
 13
505.810657
 23
538.333333
 14
505.810657
 24
588.333333
 50
90.000000
100
AcDbRotatedDimension
1001
ACAD
1000
DSTYLE
1002
{
1070
   271
1070
     1
1002
}
  0
TEXT
  5
262
100
AcDbEntity
  8
0
100
AcDbText
 62
     0
  6
CONTINUOUS
 10
412.502282886038
 20
437.903111553717
 40
6.000000000000
 41
1.000000000000
 50
0.000000000000
  1
ペルチェケーブル
100
AcDbText
  0
DIMENSION
  5
263
100
AcDbEntity
  8
0
100
AcDbDimension
 62
     3
  6
CONTINUOUS
  2
*D9
 10
459.390731
 20
252.564197
 11
459.390731
 21
312.079197
 70
   160
  1
122
  3
DIM1
100
AcDbAlignedDimension
 13
471.666667
 23
374.564197
 14
471.666667
 24
252.564197
 50
90.000000
100
AcDbRotatedDimension
1001
ACAD
1000
DSTYLE
1002
{
1070
   271
1070
     1
1002
}
  0
DIMENSION
  5
264
100
AcDbEntity
  8
0
100
AcDbDimension
 62
     3
  6
CONTINUOUS
  2
*D10
 10
567.166666
 20
437.595694
 11
533.686667
 21
437.595694
 70
   160
  1
(63)
  3
DIM1
100
AcDbAlignedDimension
 13
504.166667
 23
479.449972
 14
567.166667
 24
478.574077
100
AcDbRotatedDimension
1001
ACAD
1000
DSTYLE
1002
{
1070
   271
1070
     1
1002
}
  0
DIMENSION
  5
265
100
AcDbEntity
  8
0
100
AcDbDimension
 62
     3
  6
CONTINUOUS
  2
*D11
 10
436.222767
 20
499.333334
 11
436.222767
 21
561.848333
 70
   160
  1
128
  3
DIM1
100
AcDbAlignedDimension
 13
471.666667
 23
627.333333
 14
471.666667
 24
499.333333
 50
90.000000
100
AcDbRotatedDimension
1001
ACAD
1000
DSTYLE
1002
{
1070
   271
1070
     1
1002
}
  0
DIMENSION
  5
266
100
AcDbEntity
  8
0
100
AcDbDimension
 62
     3
  6
CONTINUOUS
  2
*D12
 10
445.945045
 20
613.333334
 11
445.945045
 21
561.848333
 70
   160
  1
100
  3
DIM1
100
AcDbAlignedDimension
 13
487.666667
 23
513.333333
 14
487.666667
 24
613.333333
 50
90.000000
100
AcDbRotatedDimension
1001
ACAD
1000
DSTYLE
1002
{
1070
   271
1070
     1
1002
}
  0
DIMENSION
  5
267
100
AcDbEntity
  8
0
100
AcDbDimension
 62
     3
  6
CONTINUOUS
  2
*D13
 10
453.598752
 20
600.333335
 11
453.598752
 21
562.343333
 70
   160
  1
74
  3
DIM1
100
AcDbAlignedDimension
 13
500.666667
 23
526.333333
 14
500.666667
 24
600.333333
 50
90.000000
100
AcDbRotatedDimension
1001
ACAD
1000
DSTYLE
1002
{
1070
   271
1070
     1
1002
}
  0
LINE
  5
268
100
AcDbEntity
  8
0
100
AcDbLine
 62
     3
  6
HIDDEN
 48
10.0
 10
633.446666666667
 20
533.833333333333
 11
637.446666666667
 21
533.833333333333
  0
LINE
  5
269
100
AcDbEntity
  8
0
100
AcDbLine
 62
     3
  6
HIDDEN
 48
10.0
 10
637.446666666667
 20
533.833333333333
 11
637.446666666667
 21
529.833333333333
  0
LINE
  5
26A
100
AcDbEntity
  8
0
100
AcDbLine
 62
     3
  6
HIDDEN
 48
10.0
 10
633.446666666667
 20
529.833333333333
 11
637.446666666667
 21
529.833333333333
  0
LINE
  5
26B
100
AcDbEntity
  8
0
100
AcDbLine
 62
     3
  6
HIDDEN
 48
10.0
 10
633.446666666667
 20
596.833333333333
 11
637.446666666667
 21
596.833333333333
  0
LINE
  5
26C
100
AcDbEntity
  8
0
100
AcDbLine
 62
     3
  6
HIDDEN
 48
10.0
 10
633.446666666667
 20
592.833333333333
 11
637.446666666667
 21
592.833333333333
  0
CIRCLE
  5
26D
100
AcDbEntity
  8
0
100
AcDbCircle
 62
     0
  6
CONTINUOUS
 10
510.666666666667
 20
588.333333333333
 40
2.200000000000
  0
CIRCLE
  5
26E
100
AcDbEntity
  8
0
100
AcDbCircle
 62
     3
  6
CONTINUOUS
 10
510.666666666667
 20
588.333333333333
 40
2.000000000000
  0
CIRCLE
  5
26F
100
AcDbEntity
  8
0
100
AcDbCircle
 62
     0
  6
CONTINUOUS
 10
510.666666666667
 20
538.333333333333
 40
2.200000000000
  0
CIRCLE
  5
270
100
AcDbEntity
  8
0
100
AcDbCircle
 62
     3
  6
CONTINUOUS
 10
510.666666666667
 20
538.333333333333
 40
2.000000000000
  0
CIRCLE
  5
271
100
AcDbEntity
  8
0
100
AcDbCircle
 62
     0
  6
CONTINUOUS
 10
560.666666666667
 20
538.333333333333
 40
2.200000000000
  0
CIRCLE
  5
272
100
AcDbEntity
  8
0
100
AcDbCircle
 62
     3
  6
CONTINUOUS
 10
560.666666666667
 20
538.333333333333
 40
2.000000000000
  0
CIRCLE
  5
273
100
AcDbEntity
  8
0
100
AcDbCircle
 62
     0
  6
CONTINUOUS
 10
560.666666666667
 20
588.333333333333
 40
2.200000000000
  0
CIRCLE
  5
274
100
AcDbEntity
  8
0
100
AcDbCircle
 62
     3
  6
CONTINUOUS
 10
560.666666666667
 20
588.333333333333
 40
2.000000000000
  0
LINE
  5
275
100
AcDbEntity
  8
0
100
AcDbLine
 62
     3
  6
HIDDEN
 48
10.0
 10
637.446666666667
 20
592.833333333333
 11
637.446666666667
 21
596.833333333333
  0
LINE
  5
276
100
AcDbEntity
  8
0
100
AcDbLine
 62
     0
  6
CENTER2
 48
10.0
 10
629.469811762373
 20
531.833333333333
 11
639.490795964996
 21
531.833333333333
  0
LINE
  5
277
100
AcDbEntity
  8
0
100
AcDbLine
 62
     0
  6
CENTER2
 48
10.0
 10
629.469811762373
 20
594.833333333333
 11
639.490795964996
 21
594.833333333333
  0
LINE
  5
278
100
AcDbEntity
  8
0
100
AcDbLine
 62
     3
  6
CONTINUOUS
 10
566.681666666667
 20
481.333333333334
 11
566.681666666667
 21
486.333333333334
  0
LINE
  5
279
100
AcDbEntity
  8
0
100
AcDbLine
 62
     3
  6
CONTINUOUS
 10
567.651666666667
 20
481.333333333334
 11
567.651666666667
 21
486.333333333334
  0
LINE
  5
27A
100
AcDbEntity
  8
0
100
AcDbLine
 62
     3
  6
CONTINUOUS
 10
566.281666667226
 20
486.333333333334
 11
566.281666667420
 21
497.458651416250
  0
LINE
  5
27B
100
AcDbEntity
  8
0
100
AcDbLine
 62
     3
  6
CONTINUOUS
 10
566.281666666314
 20
498.958651417099
 11
566.281666666667
 21
513.333333333334
  0
LINE
  5
27C
100
AcDbEntity
  8
0
100
AcDbLine
 62
     3
  6
CONTINUOUS
 10
568.051666666196
 20
486.333333333334
 11
568.051666666055
 21
495.988824980341
  0
LINE
  5
27D
100
AcDbEntity
  8
0
100
AcDbLine
 62
     3
  6
CONTINUOUS
 10
568.051666666055
 20
497.488824980341
 11
568.051666666667
 21
513.333333333334
  0
LINE
  5
27E
100
AcDbEntity
  8
0
100
AcDbLine
 62
     3
  6
CONTINUOUS
 10
567.651666666667
 20
481.333333333334
 11
566.681666666667
 21
481.333333333334
  0
LINE
  5
27F
100
AcDbEntity
  8
0
100
AcDbLine
 62
     3
  6
CONTINUOUS
 10
568.051666666196
 20
486.333333333334
 11
566.281666667226
 21
486.333333333334
  0
SPLINE
  5
280
100
AcDbEntity
  8
0
100
AcDbSpline
 62
     0
  6
CONTINUOUS
210
0.000000000000
220
0.000000000000
230
1.000000000000
 70
     8
 71
     3
 72
     0
 73
     0
 74
     3
 42
0.000000100000
 43
0.000000100000
 44
0.000000000000
 11
570.078041653980
 21
498.279244966557
 11
568.623477614174
 21
496.950781797611
 11
567.120066788669
 21
498.239419648044
  0
SPLINE
  5
281
100
AcDbEntity
  8
0
100
AcDbSpline
 62
     0
  6
CONTINUOUS
210
0.000000000000
220
0.000000000000
230
1.000000000000
 70
     8
 71
     3
 72
     0
 73
     0
 74
     3
 42
0.000000100000
 43
0.000000100000
 44
0.000000000000
 11
564.078041653980
 21
496.779244966557
 11
565.592792299266
 21
498.099648490168
 11
567.078041653980
 21
496.779244966557
  0
SPLINE
  5
282
100
AcDbEntity
  8
0
100
AcDbSpline
 62
     0
  6
CONTINUOUS
210
0.000000000000
220
0.000000000000
230
1.000000000000
 70
     8
 71
     3
 72
     0
 73
     0
 74
     3
 42
0.000000100000
 43
0.000000100000
 44
0.000000000000
 11
564.078041653980
 21
498.279244966557
 11
565.592792299266
 21
499.599648490168
 11
567.078041653980
 21
498.279244966557
  0
SPLINE
  5
283
100
AcDbEntity
  8
0
100
AcDbSpline
 62
     0
  6
CONTINUOUS
210
0.000000000000
220
0.000000000000
230
1.000000000000
 70
     8
 71
     3
 72
     0
 73
     0
 74
     3
 42
0.000000100000
 43
0.000000100000
 44
0.000000000000
 11
570.078041653980
 21
496.779244966557
 11
568.623477614174
 21
495.450781797611
 11
567.120066788669
 21
496.739419648044
  0
POINT
  5
284
100
AcDbEntity
  8
0
100
AcDbPoint
 62
     6
  6
CONTINUOUS
 10
510.666666666667
 20
588.333333333333
  0
POINT
  5
285
100
AcDbEntity
  8
0
100
AcDbPoint
 62
     6
  6
CONTINUOUS
 10
510.666666666667
 20
588.333333333333
  0
LINE
  5
286
100
AcDbEntity
  8
0
100
AcDbLine
 62
     0
  6
CENTER2
 48
10.0
 10
505.810656721393
 20
588.333333333333
 11
515.831640924017
 21
588.333333333333
  0
LINE
  5
287
100
AcDbEntity
  8
0
100
AcDbLine
 62
     0
  6
CENTER2
 48
10.0
 10
510.666666666667
 20
583.702805583676
 11
510.666666666667
 21
593.607266714176
  0
POINT
  5
288
100
AcDbEntity
  8
0
100
AcDbPoint
 62
     6
  6
CONTINUOUS
 10
510.666666666667
 20
538.333333333333
  0
POINT
  5
289
100
AcDbEntity
  8
0
100
AcDbPoint
 62
     6
  6
CONTINUOUS
 10
510.666666666667
 20
538.333333333333
  0
LINE
  5
28A
100
AcDbEntity
  8
0
100
AcDbLine
 62
     0
  6
CENTER2
 48
10.0
 10
505.810656721393
 20
538.333333333333
 11
515.831640924017
 21
538.333333333333
  0
LINE
  5
28B
100
AcDbEntity
  8
0
100
AcDbLine
 62
     0
  6
CENTER2
 48
10.0
 10
510.666666666667
 20
533.702805583676
 11
510.666666666667
 21
543.607266714176
  0
POINT
  5
28C
100
AcDbEntity
  8
0
100
AcDbPoint
 62
     6
  6
CONTINUOUS
 10
560.666666666667
 20
538.333333333333
  0
POINT
  5
28D
100
AcDbEntity
  8
0
100
AcDbPoint
 62
     6
  6
CONTINUOUS
 10
560.666666666667
 20
538.333333333333
  0
LINE
  5
28E
100
AcDbEntity
  8
0
100
AcDbLine
 62
     0
  6
CENTER2
 48
10.0
 10
555.810656721393
 20
538.333333333333
 11
565.831640924017
 21
538.333333333333
  0
LINE
  5
28F
100
AcDbEntity
  8
0
100
AcDbLine
 62
     0
  6
CENTER2
 48
10.0
 10
560.666666666667
 20
533.702805583676
 11
560.666666666667
 21
543.607266714176
  0
LINE
  5
290
100
AcDbEntity
  8
0
100
AcDbLine
 62
     0
  6
CONTINUOUS
 10
689.000000000000
 20
167.500000000000
 11
719.000000000000
 21
152.500000000000
  0
LINE
  5
291
100
AcDbEntity
  8
0
100
AcDbLine
 62
     0
  6
CONTINUOUS
 10
691.000000000000
 20
176.500000000000
 11
719.000000000000
 21
167.500000000000
  0
LINE
  5
292
100
AcDbEntity
  8
0
100
AcDbLine
 62
     0
  6
CONTINUOUS
 10
691.000000000000
 20
184.500000000000
 11
719.000000000000
 21
176.500000000000
  0
LINE
  5
293
100
AcDbEntity
  8
0
100
AcDbLine
 62
     0
  6
CONTINUOUS
 10
689.000000000000
 20
194.500000000000
 11
719.000000000000
 21
184.500000000000
  0
TEXT
  5
294
100
AcDbEntity
  8
0
100
AcDbText
 62
     0
  6
CONTINUOUS
 10
729.792066574097
 20
187.963635206223
 40
4.000000000000
 41
1.000000000000
 50
0.000000000000
  1
1
100
AcDbText
  0
TEXT
  5
295
100
AcDbEntity
  8
0
100
AcDbText
 62
     0
  6
CONTINUOUS
 10
756.809088766575
 20
187.963635206223
 40
4.000000000000
 41
1.000000000000
 50
0.000000000000
  1
1
100
AcDbText
  0
TEXT
  5
296
100
AcDbEntity
  8
0
100
AcDbText
 62
     0
  6
CONTINUOUS
 10
748.409088909626
 20
187.963635206223
 40
4.000000000000
 41
1.000000000000
 50
0.000000000000
  1
1
100
AcDbText
  0
TEXT
  5
297
100
AcDbEntity
  8
0
100
AcDbText
 62
     0
  6
CONTINUOUS
 10
730.190311938524
 20
178.799998998642
 40
3.000000000000
 41
1.000000000000
 50
0.000000000000
  1
70ペルチェユニット
100
AcDbText
  0
TEXT
  5
298
100
AcDbEntity
  8
0
100
AcDbText
 62
     0
  6
CONTINUOUS
 10
730.190311938524
 20
172.205001115799
 40
3.000000000000
 41
1.000000000000
 50
0.000000000000
  1
UT-7070J-HS
100
AcDbText
  0
TEXT
  5
299
100
AcDbEntity
  8
0
100
AcDbText
 62
     0
  6
CONTINUOUS
 10
729.699998319149
 20
161.618181109428
 40
4.000000000000
 41
1.000000000000
 50
0.000000000000
  1
外観図
100
AcDbText
  0
TEXT
  5
29A
100
AcDbEntity
  8
0
100
AcDbText
 62
     0
  6
CENTER2
 48
10.0
 10
692.663663461804
 20
147.551855221391
 40
3.000000000000
 41
1.000000000000
 50
0.000000000000
  1
4321
100
AcDbText
  0
TEXT
  5
29B
100
AcDbEntity
  8
0
100
AcDbText
 62
     0
  6
CONTINUOUS
 10
664.981817603111
 20
146.536363184452
 40
3.000000000000
 41
1.000000000000
 50
0.000000000000
  1
190307
100
AcDbText
  0
TEXT
  5
29C
100
AcDbEntity
  8
0
100
AcDbText
 62
     0
  6
CONTINUOUS
 10
668.799999356270
 20
154.554544866085
 40
4.000000000000
 41
1.000000000000
 50
0.000000000000
  1
中　務
100
AcDbText
  0
TEXT
  5
29D
100
AcDbEntity
  8
0
100
AcDbText
 62
     0
  6
CONTINUOUS
 10
644.936347752810
 20
146.536363184452
 40
3.000000000000
 41
1.000000000000
 50
0.000000000000
  1
190307
100
AcDbText
  0
TEXT
  5
29E
100
AcDbEntity
  8
0
100
AcDbText
 62
     0
  6
CONTINUOUS
 10
648.754529505968
 20
154.554544866085
 40
4.000000000000
 41
1.000000000000
 50
0.000000000000
  1
中　務
100
AcDbText
  0
LINE
  5
29F
100
AcDbEntity
  8
0
100
AcDbLine
 62
     1
  6
CONTINUOUS
 10
648.000000000000
 20
188.500000000000
 11
657.000000000000
 21
188.500000000000
  0
LINE
  5
2A0
100
AcDbEntity
  8
0
100
AcDbLine
 62
     1
  6
CONTINUOUS
 10
630.000000000000
 20
167.500000000000
 11
630.000000000000
 21
194.500000000000
  0
LINE
  5
2A1
100
AcDbEntity
  8
0
100
AcDbLine
 62
     1
  6
CONTINUOUS
 10
630.000000000000
 20
188.500000000000
 11
630.000000000000
 21
185.500000000000
  0
LINE
  5
2A2
100
AcDbEntity
  8
0
100
AcDbLine
 62
     1
  6
CONTINUOUS
 10
630.000000000000
 20
188.500000000000
 11
609.000000000000
 21
188.500000000000
  0
LINE
  5
2A3
100
AcDbEntity
  8
0
100
AcDbLine
 62
     1
  6
CONTINUOUS
 10
621.000000000000
 20
173.500000000000
 11
621.000000000000
 21
167.500000000000
  0
LINE
  5
2A4
100
AcDbEntity
  8
0
100
AcDbLine
 62
     1
  6
CONTINUOUS
 10
609.000000000000
 20
185.500000000000
 11
684.000000000000
 21
185.500000000000
  0
LINE
  5
2A5
100
AcDbEntity
  8
0
100
AcDbLine
 62
     1
  6
CONTINUOUS
 10
609.000000000000
 20
182.500000000000
 11
684.000000000000
 21
182.500000000000
  0
LINE
  5
2A6
100
AcDbEntity
  8
0
100
AcDbLine
 62
     1
  6
CONTINUOUS
 10
609.000000000000
 20
179.500000000000
 11
684.000000000000
 21
179.500000000000
  0
LINE
  5
2A7
100
AcDbEntity
  8
0
100
AcDbLine
 62
     1
  6
CONTINUOUS
 10
609.000000000000
 20
176.500000000000
 11
684.000000000000
 21
176.500000000000
  0
LINE
  5
2A8
100
AcDbEntity
  8
0
100
AcDbLine
 62
     1
  6
CONTINUOUS
 10
639.000000000000
 20
173.500000000000
 11
639.000000000000
 21
194.500000000000
  0
LINE
  5
2A9
100
AcDbEntity
  8
0
100
AcDbLine
 62
     1
  6
CONTINUOUS
 10
666.000000000000
 20
188.500000000000
 11
675.000000000000
 21
188.500000000000
  0
LINE
  5
2AA
100
AcDbEntity
  8
0
100
AcDbLine
 62
     1
  6
CONTINUOUS
 10
657.000000000000
 20
173.500000000000
 11
657.000000000000
 21
194.500000000000
  0
LINE
  5
2AB
100
AcDbEntity
  8
0
100
AcDbLine
 62
     1
  6
CONTINUOUS
 10
648.000000000000
 20
173.500000000000
 11
648.000000000000
 21
194.500000000000
  0
LINE
  5
2AC
100
AcDbEntity
  8
0
100
AcDbLine
 62
     1
  6
CONTINUOUS
 10
609.000000000000
 20
191.500000000000
 11
684.000000000000
 21
191.500000000000
  0
LINE
  5
2AD
100
AcDbEntity
  8
0
100
AcDbLine
 62
     1
  6
CONTINUOUS
 10
609.000000000000
 20
167.500000000000
 11
609.000000000000
 21
194.500000000000
  0
LINE
  5
2AE
100
AcDbEntity
  8
0
100
AcDbLine
 62
     1
  6
CONTINUOUS
 10
609.000000000000
 20
173.500000000000
 11
684.000000000000
 21
173.500000000000
  0
LINE
  5
2AF
100
AcDbEntity
  8
0
100
AcDbLine
 62
     1
  6
CONTINUOUS
 10
621.000000000000
 20
170.500000000000
 11
684.000000000000
 21
170.500000000000
  0
LINE
  5
2B0
100
AcDbEntity
  8
0
100
AcDbLine
 62
     1
  6
CONTINUOUS
 10
666.000000000000
 20
167.500000000000
 11
666.000000000000
 21
194.500000000000
  0
LINE
  5
2B1
100
AcDbEntity
  8
0
100
AcDbLine
 62
     1
  6
CONTINUOUS
 10
675.000000000000
 20
167.500000000000
 11
675.000000000000
 21
194.500000000000
  0
LINE
  5
2B2
100
AcDbEntity
  8
0
100
AcDbLine
 62
     2
  6
CONTINUOUS
 10
514.018798828125
 20
175.929740905762
 11
510.818801879883
 21
171.449737548828
  0
LINE
  5
2B3
100
AcDbEntity
  8
0
100
AcDbLine
 62
     2
  6
CONTINUOUS
 10
510.818801879883
 20
171.449737548828
 11
517.218795776367
 21
171.449737548828
  0
LINE
  5
2B4
100
AcDbEntity
  8
0
100
AcDbLine
 62
     2
  6
CONTINUOUS
 10
517.218795776367
 20
171.449737548828
 11
514.018798828125
 21
175.929740905762
  0
LINE
  5
2B5
100
AcDbEntity
  8
0
100
AcDbLine
 62
     2
  6
CONTINUOUS
 10
510.818801879883
 20
189.449737548828
 11
517.218795776367
 21
189.449737548828
  0
LINE
  5
2B6
100
AcDbEntity
  8
0
100
AcDbLine
 62
     2
  6
CONTINUOUS
 10
514.018798828125
 20
193.929740905762
 11
510.818801879883
 21
189.449737548828
  0
LINE
  5
2B7
100
AcDbEntity
  8
0
100
AcDbLine
 62
     2
  6
CONTINUOUS
 10
517.218795776367
 20
189.449737548828
 11
514.018798828125
 21
193.929740905762
  0
LINE
  5
2B8
100
AcDbEntity
  8
0
100
AcDbLine
 62
     2
  6
CONTINUOUS
 10
510.818801879883
 20
183.449737548828
 11
517.218795776367
 21
183.449737548828
  0
LINE
  5
2B9
100
AcDbEntity
  8
0
100
AcDbLine
 62
     2
  6
CONTINUOUS
 10
514.018798828125
 20
187.929740905762
 11
510.818801879883
 21
183.449737548828
  0
LINE
  5
2BA
100
AcDbEntity
  8
0
100
AcDbLine
 62
     2
  6
CONTINUOUS
 10
517.218795776367
 20
183.449737548828
 11
514.018798828125
 21
187.929740905762
  0
LINE
  5
2BB
100
AcDbEntity
  8
0
100
AcDbLine
 62
     2
  6
CONTINUOUS
 10
510.818801879883
 20
177.449737548828
 11
517.218795776367
 21
177.449737548828
  0
LINE
  5
2BC
100
AcDbEntity
  8
0
100
AcDbLine
 62
     0
  6
CONTINUOUS
 10
604.000000000000
 20
188.500000000000
 11
509.000000000000
 21
188.500000000000
  0
LINE
  5
2BD
100
AcDbEntity
  8
0
100
AcDbLine
 62
     3
  6
CONTINUOUS
 10
604.000000000000
 20
194.500000000000
 11
509.000000000000
 21
194.500000000000
  0
LINE
  5
2BE
100
AcDbEntity
  8
0
100
AcDbLine
 62
     0
  6
CONTINUOUS
 10
604.000000000000
 20
182.500000000000
 11
509.000000000000
 21
182.500000000000
  0
LINE
  5
2BF
100
AcDbEntity
  8
0
100
AcDbLine
 62
     2
  6
CONTINUOUS
 10
514.018798828125
 20
181.929740905762
 11
510.818801879883
 21
177.449737548828
  0
LINE
  5
2C0
100
AcDbEntity
  8
0
100
AcDbLine
 62
     2
  6
CONTINUOUS
 10
517.218795776367
 20
177.449737548828
 11
514.018798828125
 21
181.929740905762
  0
LINE
  5
2C1
100
AcDbEntity
  8
0
100
AcDbLine
 62
     0
  6
CONTINUOUS
 10
604.000000000000
 20
176.500000000000
 11
509.000000000000
 21
176.500000000000
  0
LINE
  5
2C2
100
AcDbEntity
  8
0
100
AcDbLine
 62
     3
  6
CONTINUOUS
 10
509.000000000000
 20
194.500000000000
 11
509.000000000000
 21
145.500000000000
  0
LINE
  5
2C3
100
AcDbEntity
  8
0
100
AcDbLine
 62
     2
  6
CONTINUOUS
 10
510.818801879883
 20
165.449737548828
 11
517.218795776367
 21
165.449737548828
  0
LINE
  5
2C4
100
AcDbEntity
  8
0
100
AcDbLine
 62
     2
  6
CONTINUOUS
 10
514.018798828125
 20
169.929740905762
 11
510.818801879883
 21
165.449737548828
  0
LINE
  5
2C5
100
AcDbEntity
  8
0
100
AcDbLine
 62
     2
  6
CONTINUOUS
 10
517.218795776367
 20
165.449737548828
 11
514.018798828125
 21
169.929740905762
  0
LINE
  5
2C6
100
AcDbEntity
  8
0
100
AcDbLine
 62
     2
  6
CONTINUOUS
 10
510.818801879883
 20
159.449737548828
 11
517.218795776367
 21
159.449737548828
  0
LINE
  5
2C7
100
AcDbEntity
  8
0
100
AcDbLine
 62
     2
  6
CONTINUOUS
 10
514.018798828125
 20
163.929740905762
 11
510.818801879883
 21
159.449737548828
  0
LINE
  5
2C8
100
AcDbEntity
  8
0
100
AcDbLine
 62
     2
  6
CONTINUOUS
 10
517.218795776367
 20
159.449737548828
 11
514.018798828125
 21
163.929740905762
  0
LINE
  5
2C9
100
AcDbEntity
  8
0
100
AcDbLine
 62
     0
  6
CONTINUOUS
 10
604.000000000000
 20
170.500000000000
 11
509.000000000000
 21
170.500000000000
  0
LINE
  5
2CA
100
AcDbEntity
  8
0
100
AcDbLine
 62
     0
  6
CONTINUOUS
 10
604.000000000000
 20
164.500000000000
 11
509.000000000000
 21
164.500000000000
  0
LINE
  5
2CB
100
AcDbEntity
  8
0
100
AcDbLine
 62
     0
  6
CONTINUOUS
 10
604.000000000000
 20
158.500000000000
 11
509.000000000000
 21
158.500000000000
  0
LINE
  5
2CC
100
AcDbEntity
  8
0
100
AcDbLine
 62
     2
  6
CONTINUOUS
 10
517.218795776367
 20
153.449737548828
 11
514.018798828125
 21
157.929740905762
  0
LINE
  5
2CD
100
AcDbEntity
  8
0
100
AcDbLine
 62
     2
  6
CONTINUOUS
 10
510.818801879883
 20
153.449737548828
 11
517.218795776367
 21
153.449737548828
  0
LINE
  5
2CE
100
AcDbEntity
  8
0
100
AcDbLine
 62
     2
  6
CONTINUOUS
 10
514.018798828125
 20
157.929740905762
 11
510.818801879883
 21
153.449737548828
  0
LINE
  5
2CF
100
AcDbEntity
  8
0
100
AcDbLine
 62
     0
  6
CONTINUOUS
 10
773.500000000000
 20
157.500000000000
 11
773.500000000000
 21
145.500000000000
  0
LINE
  5
2D0
100
AcDbEntity
  8
0
100
AcDbLine
 62
     0
  6
CONTINUOUS
 10
677.000000000000
 20
147.500000000000
 11
677.000000000000
 21
145.500000000000
  0
LINE
  5
2D1
100
AcDbEntity
  8
0
100
AcDbLine
 62
     0
  6
CONTINUOUS
 10
670.500000000000
 20
147.500000000000
 11
670.500000000000
 21
145.500000000000
  0
LINE
  5
2D2
100
AcDbEntity
  8
0
100
AcDbLine
 62
     0
  6
CONTINUOUS
 10
657.000000000000
 20
147.500000000000
 11
657.000000000000
 21
145.500000000000
  0
LINE
  5
2D3
100
AcDbEntity
  8
0
100
AcDbLine
 62
     0
  6
CONTINUOUS
 10
650.500000000000
 20
147.500000000000
 11
650.500000000000
 21
145.500000000000
  0
LINE
  5
2D4
100
AcDbEntity
  8
0
100
AcDbLine
 62
     0
  6
CONTINUOUS
 10
637.000000000000
 20
147.500000000000
 11
637.000000000000
 21
145.500000000000
  0
LINE
  5
2D5
100
AcDbEntity
  8
0
100
AcDbLine
 62
     0
  6
CONTINUOUS
 10
630.500000000000
 20
147.500000000000
 11
630.500000000000
 21
145.500000000000
  0
LINE
  5
2D6
100
AcDbEntity
  8
0
100
AcDbLine
 62
     0
  6
CONTINUOUS
 10
617.000000000000
 20
147.500000000000
 11
617.000000000000
 21
145.500000000000
  0
LINE
  5
2D7
100
AcDbEntity
  8
0
100
AcDbLine
 62
     0
  6
CONTINUOUS
 10
610.500000000000
 20
147.500000000000
 11
610.500000000000
 21
145.500000000000
  0
LINE
  5
2D8
100
AcDbEntity
  8
0
100
AcDbLine
 62
     0
  6
HIDDEN
 48
10.0
 10
729.000000000000
 20
177.000000000000
 11
779.000000000000
 21
177.000000000000
  0
LINE
  5
2D9
100
AcDbEntity
  8
0
100
AcDbLine
 62
     3
  6
CONTINUOUS
 10
774.000000000000
 20
188.000000000000
 11
782.000000000000
 21
186.000000000000
  0
LINE
  5
2DA
100
AcDbEntity
  8
0
100
AcDbLine
 62
     3
  6
CONTINUOUS
 10
774.000000000000
 20
191.000000000000
 11
782.000000000000
 21
193.000000000000
  0
LINE
  5
2DB
100
AcDbEntity
  8
0
100
AcDbLine
 62
     3
  6
CONTINUOUS
 10
774.000000000000
 20
188.000000000000
 11
774.000000000000
 21
191.000000000000
  0
LINE
  5
2DC
100
AcDbEntity
  8
0
100
AcDbLine
 62
     3
  6
CONTINUOUS
 10
782.000000000000
 20
186.000000000000
 11
782.000000000000
 21
193.000000000000
  0
CIRCLE
  5
2DD
100
AcDbEntity
  8
0
100
AcDbCircle
 62
     3
  6
CONTINUOUS
 10
769.000000000000
 20
189.500000000000
 40
3.500000000000
  0
CIRCLE
  5
2DE
100
AcDbEntity
  8
0
100
AcDbCircle
 62
     3
  6
CONTINUOUS
 10
769.000000000000
 20
189.500000000000
 40
1.500000000000
  0
LINE
  5
2DF
100
AcDbEntity
  8
0
100
AcDbLine
 62
     2
  6
CONTINUOUS
 10
769.000000000000
 20
185.000000000000
 11
769.000000000000
 21
194.000000000000
  0
LINE
  5
2E0
100
AcDbEntity
  8
0
100
AcDbLine
 62
     2
  6
CONTINUOUS
 10
764.500000000000
 20
189.500000000000
 11
783.500000000000
 21
189.500000000000
  0
LINE
  5
2E1
100
AcDbEntity
  8
0
100
AcDbLine
 62
     0
  6
CONTINUOUS
 10
744.000000000000
 20
184.500000000000
 11
744.000000000000
 21
194.500000000000
  0
LINE
  5
2E2
100
AcDbEntity
  8
0
100
AcDbLine
 62
     0
  6
CONTINUOUS
 10
691.000000000000
 20
167.500000000000
 11
691.000000000000
 21
184.500000000000
  0
LINE
  5
2E3
100
AcDbEntity
  8
0
100
AcDbLine
 62
     0
  6
CONTINUOUS
 10
691.000000000000
 20
152.500000000000
 11
691.000000000000
 21
145.500000000000
  0
LINE
  5
2E4
100
AcDbEntity
  8
0
100
AcDbLine
 62
     0
  6
CONTINUOUS
 10
689.000000000000
 20
152.500000000000
 11
689.000000000000
 21
167.500000000000
  0
LINE
  5
2E5
100
AcDbEntity
  8
0
100
AcDbLine
 62
     0
  6
CONTINUOUS
 10
689.000000000000
 20
184.500000000000
 11
689.000000000000
 21
194.500000000000
  0
LINE
  5
2E6
100
AcDbEntity
  8
0
100
AcDbLine
 62
     0
  6
CONTINUOUS
 10
724.000000000000
 20
194.500000000000
 11
724.000000000000
 21
145.500000000000
  0
LINE
  5
2E7
100
AcDbEntity
  8
0
100
AcDbLine
 62
     3
  6
CONTINUOUS
 10
764.000000000000
 20
184.500000000000
 11
764.000000000000
 21
194.500000000000
  0
LINE
  5
2E8
100
AcDbEntity
  8
0
100
AcDbLine
 62
     3
  6
CONTINUOUS
 10
739.000000000000
 20
184.500000000000
 11
739.000000000000
 21
194.500000000000
  0
LINE
  5
2E9
100
AcDbEntity
  8
0
100
AcDbLine
 62
     3
  6
CONTINUOUS
 10
604.000000000000
 20
194.500000000000
 11
784.000000000000
 21
194.500000000000
  0
LINE
  5
2EA
100
AcDbEntity
  8
0
100
AcDbLine
 62
     3
  6
CONTINUOUS
 10
719.000000000000
 20
169.500000000000
 11
784.000000000000
 21
169.500000000000
  0
LINE
  5
2EB
100
AcDbEntity
  8
0
100
AcDbLine
 62
     3
  6
CONTINUOUS
 10
719.000000000000
 20
157.500000000000
 11
784.000000000000
 21
157.500000000000
  0
LINE
  5
2EC
100
AcDbEntity
  8
0
100
AcDbLine
 62
     3
  6
CONTINUOUS
 10
684.000000000000
 20
184.500000000000
 11
784.000000000000
 21
184.500000000000
  0
LINE
  5
2ED
100
AcDbEntity
  8
0
100
AcDbLine
 62
     3
  6
CONTINUOUS
 10
719.000000000000
 20
176.500000000000
 11
684.000000000000
 21
176.500000000000
  0
LINE
  5
2EE
100
AcDbEntity
  8
0
100
AcDbLine
 62
     3
  6
CONTINUOUS
 10
719.000000000000
 20
167.500000000000
 11
684.000000000000
 21
167.500000000000
  0
LINE
  5
2EF
100
AcDbEntity
  8
0
100
AcDbLine
 62
     3
  6
CONTINUOUS
 10
719.000000000000
 20
152.500000000000
 11
684.000000000000
 21
152.500000000000
  0
LINE
  5
2F0
100
AcDbEntity
  8
0
100
AcDbLine
 62
     0
  6
CONTINUOUS
 10
519.000000000000
 20
194.500000000000
 11
519.000000000000
 21
145.500000000000
  0
LINE
  5
2F1
100
AcDbEntity
  8
0
100
AcDbLine
 62
     0
  6
CONTINUOUS
 10
569.000000000000
 20
194.500000000000
 11
569.000000000000
 21
145.500000000000
  0
LINE
  5
2F2
100
AcDbEntity
  8
0
100
AcDbLine
 62
     0
  6
CONTINUOUS
 10
579.000000000000
 20
194.500000000000
 11
579.000000000000
 21
145.500000000000
  0
LINE
  5
2F3
100
AcDbEntity
  8
0
100
AcDbLine
 62
     0
  6
CONTINUOUS
 10
589.000000000000
 20
194.500000000000
 11
589.000000000000
 21
145.500000000000
  0
LINE
  5
2F4
100
AcDbEntity
  8
0
100
AcDbLine
 62
     3
  6
CONTINUOUS
 10
604.000000000000
 20
167.500000000000
 11
684.000000000000
 21
167.500000000000
  0
LINE
  5
2F5
100
AcDbEntity
  8
0
100
AcDbLine
 62
     0
  6
CONTINUOUS
 10
604.000000000000
 20
162.500000000000
 11
684.000000000000
 21
162.500000000000
  0
LINE
  5
2F6
100
AcDbEntity
  8
0
100
AcDbLine
 62
     0
  6
CONTINUOUS
 10
604.000000000000
 20
150.500000000000
 11
684.000000000000
 21
150.500000000000
  0
LINE
  5
2F7
100
AcDbEntity
  8
0
100
AcDbLine
 62
     0
  6
CONTINUOUS
 10
664.000000000000
 20
167.500000000000
 11
664.000000000000
 21
145.500000000000
  0
LINE
  5
2F8
100
AcDbEntity
  8
0
100
AcDbLine
 62
     0
  6
CONTINUOUS
 10
644.000000000000
 20
167.500000000000
 11
644.000000000000
 21
145.500000000000
  0
LINE
  5
2F9
100
AcDbEntity
  8
0
100
AcDbLine
 62
     0
  6
CONTINUOUS
 10
624.000000000000
 20
167.500000000000
 11
624.000000000000
 21
145.500000000000
  0
LINE
  5
2FA
100
AcDbEntity
  8
0
100
AcDbLine
 62
     0
  6
CONTINUOUS
 10
604.000000000000
 20
152.500000000000
 11
509.000000000000
 21
152.500000000000
  0
LINE
  5
2FB
100
AcDbEntity
  8
0
100
AcDbLine
 62
     3
  6
CONTINUOUS
 10
719.000000000000
 20
194.500000000000
 11
719.000000000000
 21
145.500000000000
  0
LINE
  5
2FC
100
AcDbEntity
  8
0
100
AcDbLine
 62
     3
  6
CONTINUOUS
 10
684.000000000000
 20
194.500000000000
 11
684.000000000000
 21
145.500000000000
  0
LINE
  5
2FD
100
AcDbEntity
  8
0
100
AcDbLine
 62
     3
  6
CONTINUOUS
 10
604.000000000000
 20
194.500000000000
 11
604.000000000000
 21
145.500000000000
  0
LINE
  5
2FE
100
AcDbEntity
  8
0
100
AcDbLine
 62
     2
  6
CONTINUOUS
 10
778.246773348004
 20
142.773527280316
 11
778.561773348004
 21
143.534177936241
  0
LINE
  5
2FF
100
AcDbEntity
  8
0
100
AcDbLine
 62
     2
  6
CONTINUOUS
 10
777.835549232084
 20
142.773527280316
 11
778.537439591281
 21
143.475417639513
  0
LINE
  5
300
100
AcDbEntity
  8
0
100
AcDbLine
 62
     2
  6
CONTINUOUS
 10
777.568262868795
 20
142.773527280316
 11
778.328913524721
 21
143.534177936241
  0
LINE
  5
301
100
AcDbEntity
  8
0
100
AcDbLine
 62
     2
  6
CONTINUOUS
 10
777.434619687151
 20
142.773527280316
 11
778.195270343076
 21
143.534177936241
  0
LINE
  5
302
100
AcDbEntity
  8
0
100
AcDbLine
 62
     2
  6
CONTINUOUS
 10
775.830901507420
 20
142.773527280316
 11
776.591552163345
 21
143.534177936241
  0
LINE
  5
303
100
AcDbEntity
  8
0
100
AcDbLine
 62
     2
  6
CONTINUOUS
 10
775.964544689064
 20
142.773527280316
 11
776.725195344989
 21
143.534177936241
  0
LINE
  5
304
100
AcDbEntity
  8
0
100
AcDbLine
 62
     2
  6
CONTINUOUS
 10
776.098187870708
 20
142.773527280316
 11
776.858838526634
 21
143.534177936241
  0
LINE
  5
305
100
AcDbEntity
  8
0
100
AcDbLine
 62
     2
  6
CONTINUOUS
 10
776.231831052353
 20
142.773527280316
 11
776.992481708278
 21
143.534177936241
  0
LINE
  5
306
100
AcDbEntity
  8
0
100
AcDbLine
 62
     2
  6
CONTINUOUS
 10
776.365474233997
 20
142.773527280316
 11
777.126124889922
 21
143.534177936241
  0
LINE
  5
307
100
AcDbEntity
  8
0
100
AcDbLine
 62
     2
  6
CONTINUOUS
 10
776.499117415641
 20
142.773527280316
 11
777.259768071566
 21
143.534177936241
  0
LINE
  5
308
100
AcDbEntity
  8
0
100
AcDbLine
 62
     2
  6
CONTINUOUS
 10
776.632760597285
 20
142.773527280316
 11
777.393411253211
 21
143.534177936241
  0
LINE
  5
309
100
AcDbEntity
  8
0
100
AcDbLine
 62
     2
  6
CONTINUOUS
 10
776.766403778930
 20
142.773527280316
 11
777.527054434855
 21
143.534177936241
  0
LINE
  5
30A
100
AcDbEntity
  8
0
100
AcDbLine
 62
     2
  6
CONTINUOUS
 10
776.900046960574
 20
142.773527280316
 11
777.660697616499
 21
143.534177936241
  0
LINE
  5
30B
100
AcDbEntity
  8
0
100
AcDbLine
 62
     2
  6
CONTINUOUS
 10
777.033690142218
 20
142.773527280316
 11
777.794340798143
 21
143.534177936241
  0
LINE
  5
30C
100
AcDbEntity
  8
0
100
AcDbLine
 62
     2
  6
CONTINUOUS
 10
777.167333323863
 20
142.773527280316
 11
777.927983979788
 21
143.534177936241
  0
LINE
  5
30D
100
AcDbEntity
  8
0
100
AcDbLine
 62
     2
  6
CONTINUOUS
 10
777.300976505507
 20
142.773527280316
 11
778.061627161432
 21
143.534177936241
  0
LINE
  5
30E
100
AcDbEntity
  8
0
100
AcDbLine
 62
     2
  6
CONTINUOUS
 10
777.701906050440
 20
142.773527280316
 11
778.462556706365
 21
143.534177936241
  0
LINE
  5
30F
100
AcDbEntity
  8
0
100
AcDbLine
 62
     2
  6
CONTINUOUS
 10
777.969192413728
 20
142.773527280316
 11
778.442976353246
 21
143.247311219833
  0
LINE
  5
310
100
AcDbEntity
  8
0
100
AcDbLine
 62
     2
  6
CONTINUOUS
 10
778.102835595372
 20
142.773527280316
 11
778.348513115209
 21
143.019204800153
  0
LINE
  5
311
100
AcDbEntity
  8
0
100
AcDbLine
 62
     2
  6
CONTINUOUS
 10
778.236478777017
 20
142.773527280316
 11
778.254049877174
 21
142.791098380473
  0
LINE
  5
312
100
AcDbEntity
  8
0
100
AcDbLine
 62
     2
  6
CONTINUOUS
 10
757.949461822646
 20
141.673839971423
 11
758.579461822646
 21
142.303839971423
  0
LINE
  5
313
100
AcDbEntity
  8
0
100
AcDbLine
 62
     2
  6
CONTINUOUS
 10
757.849398182109
 20
141.707419512530
 11
758.445818641002
 21
142.303839971423
  0
LINE
  5
314
100
AcDbEntity
  8
0
100
AcDbLine
 62
     2
  6
CONTINUOUS
 10
775.697258325775
 20
142.773527280316
 11
776.457908981701
 21
143.534177936241
  0
LINE
  5
315
100
AcDbEntity
  8
0
100
AcDbLine
 62
     2
  6
CONTINUOUS
 10
775.563615144131
 20
142.773527280316
 11
776.324265800057
 21
143.534177936241
  0
LINE
  5
316
100
AcDbEntity
  8
0
100
AcDbLine
 62
     2
  6
CONTINUOUS
 10
775.429971962487
 20
142.773527280316
 11
776.190622618412
 21
143.534177936241
  0
LINE
  5
317
100
AcDbEntity
  8
0
100
AcDbLine
 62
     2
  6
CONTINUOUS
 10
775.296328780843
 20
142.773527280316
 11
776.056979436768
 21
143.534177936241
  0
LINE
  5
318
100
AcDbEntity
  8
0
100
AcDbLine
 62
     2
  6
CONTINUOUS
 10
775.162685599198
 20
142.773527280316
 11
775.923336255124
 21
143.534177936241
  0
LINE
  5
319
100
AcDbEntity
  8
0
100
AcDbLine
 62
     2
  6
CONTINUOUS
 10
775.029042417554
 20
142.773527280316
 11
775.789693073479
 21
143.534177936241
  0
LINE
  5
31A
100
AcDbEntity
  8
0
100
AcDbLine
 62
     2
  6
CONTINUOUS
 10
774.895399235910
 20
142.773527280316
 11
775.656049891835
 21
143.534177936241
  0
LINE
  5
31B
100
AcDbEntity
  8
0
100
AcDbLine
 62
     2
  6
CONTINUOUS
 10
774.761756054266
 20
142.773527280316
 11
775.522406710191
 21
143.534177936241
  0
LINE
  5
31C
100
AcDbEntity
  8
0
100
AcDbLine
 62
     2
  6
CONTINUOUS
 10
773.289779704666
 20
141.673839971423
 11
773.363150304192
 21
141.747210570949
  0
LINE
  5
31D
100
AcDbEntity
  8
0
100
AcDbLine
 62
     2
  6
CONTINUOUS
 10
774.628112872621
 20
142.773527280316
 11
775.388763528547
 21
143.534177936241
  0
LINE
  5
31E
100
AcDbEntity
  8
0
100
AcDbLine
 62
     2
  6
CONTINUOUS
 10
773.156136523022
 20
141.673839971423
 11
773.496793485837
 21
142.014496934238
  0
LINE
  5
31F
100
AcDbEntity
  8
0
100
AcDbLine
 62
     2
  6
CONTINUOUS
 10
773.022493341377
 20
141.673839971423
 11
773.630436667481
 21
142.281783297527
  0
LINE
  5
320
100
AcDbEntity
  8
0
100
AcDbLine
 62
     2
  6
CONTINUOUS
 10
774.360826509333
 20
142.773527280316
 11
775.121477165258
 21
143.534177936241
  0
LINE
  5
321
100
AcDbEntity
  8
0
100
AcDbLine
 62
     2
  6
CONTINUOUS
 10
772.888850159733
 20
141.673839971423
 11
773.518850159733
 21
142.303839971423
  0
LINE
  5
322
100
AcDbEntity
  8
0
100
AcDbLine
 62
     2
  6
CONTINUOUS
 10
774.309273348004
 20
142.855617300631
 11
774.987833983614
 21
143.534177936241
  0
LINE
  5
323
100
AcDbEntity
  8
0
100
AcDbLine
 62
     2
  6
CONTINUOUS
 10
772.755206978089
 20
141.673839971423
 11
773.385206978089
 21
142.303839971423
  0
LINE
  5
324
100
AcDbEntity
  8
0
100
AcDbLine
 62
     2
  6
CONTINUOUS
 10
774.309273348004
 20
142.989260482275
 11
774.854190801969
 21
143.534177936241
  0
LINE
  5
325
100
AcDbEntity
  8
0
100
AcDbLine
 62
     2
  6
CONTINUOUS
 10
772.621563796445
 20
141.673839971423
 11
773.251563796445
 21
142.303839971423
  0
LINE
  5
326
100
AcDbEntity
  8
0
100
AcDbLine
 62
     2
  6
CONTINUOUS
 10
774.309273348004
 20
143.122903663919
 11
774.720547620325
 21
143.534177936241
  0
LINE
  5
327
100
AcDbEntity
  8
0
100
AcDbLine
 62
     2
  6
CONTINUOUS
 10
772.487920614800
 20
141.673839971423
 11
773.117920614800
 21
142.303839971423
  0
LINE
  5
328
100
AcDbEntity
  8
0
100
AcDbLine
 62
     2
  6
CONTINUOUS
 10
774.309273348004
 20
143.256546845564
 11
774.586904438681
 21
143.534177936241
  0
LINE
  5
329
100
AcDbEntity
  8
0
100
AcDbLine
 62
     2
  6
CONTINUOUS
 10
772.354277433156
 20
141.673839971423
 11
772.984277433156
 21
142.303839971423
  0
LINE
  5
32A
100
AcDbEntity
  8
0
100
AcDbLine
 62
     2
  6
CONTINUOUS
 10
774.309273348004
 20
143.390190027208
 11
774.453261257037
 21
143.534177936241
  0
LINE
  5
32B
100
AcDbEntity
  8
0
100
AcDbLine
 62
     2
  6
CONTINUOUS
 10
772.220634251512
 20
141.673839971423
 11
772.850634251512
 21
142.303839971423
  0
LINE
  5
32C
100
AcDbEntity
  8
0
100
AcDbLine
 62
     2
  6
CONTINUOUS
 10
772.086991069868
 20
141.673839971423
 11
772.716991069868
 21
142.303839971423
  0
LINE
  5
32D
100
AcDbEntity
  8
0
100
AcDbLine
 62
     2
  6
CONTINUOUS
 10
771.953347888223
 20
141.673839971423
 11
772.583347888223
 21
142.303839971423
  0
LINE
  5
32E
100
AcDbEntity
  8
0
100
AcDbLine
 62
     2
  6
CONTINUOUS
 10
771.819704706579
 20
141.673839971423
 11
772.449704706579
 21
142.303839971423
  0
LINE
  5
32F
100
AcDbEntity
  8
0
100
AcDbLine
 62
     2
  6
CONTINUOUS
 10
772.912797702014
 20
142.766932966858
 11
772.919392015472
 21
142.773527280316
  0
LINE
  5
330
100
AcDbEntity
  8
0
100
AcDbLine
 62
     2
  6
CONTINUOUS
 10
772.919392015472
 20
142.773527280316
 11
773.089426136132
 21
142.943561400977
  0
LINE
  5
331
100
AcDbEntity
  8
0
100
AcDbLine
 62
     2
  6
CONTINUOUS
 10
771.686061524935
 20
141.673839971423
 11
772.316061524935
 21
142.303839971423
  0
LINE
  5
332
100
AcDbEntity
  8
0
100
AcDbLine
 62
     2
  6
CONTINUOUS
 10
772.779154520370
 20
142.766932966858
 11
773.170558411422
 21
143.158336857911
  0
LINE
  5
333
100
AcDbEntity
  8
0
100
AcDbLine
 62
     2
  6
CONTINUOUS
 10
771.552418343291
 20
141.673839971423
 11
772.182418343290
 21
142.303839971423
  0
LINE
  5
334
100
AcDbEntity
  8
0
100
AcDbLine
 62
     2
  6
CONTINUOUS
 10
772.645511338726
 20
142.766932966858
 11
773.251690686712
 21
143.373112314845
  0
LINE
  5
335
100
AcDbEntity
  8
0
100
AcDbLine
 62
     2
  6
CONTINUOUS
 10
771.418775161646
 20
141.673839971423
 11
772.048775161646
 21
142.303839971423
  0
LINE
  5
336
100
AcDbEntity
  8
0
100
AcDbLine
 62
     2
  6
CONTINUOUS
 10
772.511868157081
 20
142.766932966858
 11
773.279113126464
 21
143.534177936241
  0
LINE
  5
337
100
AcDbEntity
  8
0
100
AcDbLine
 62
     2
  6
CONTINUOUS
 10
773.279113126464
 20
143.534177936241
 11
773.332822962002
 21
143.587887771779
  0
LINE
  5
338
100
AcDbEntity
  8
0
100
AcDbLine
 62
     2
  6
CONTINUOUS
 10
771.285131980002
 20
141.673839971423
 11
771.915131980002
 21
142.303839971423
  0
LINE
  5
339
100
AcDbEntity
  8
0
100
AcDbLine
 62
     2
  6
CONTINUOUS
 10
772.378224975437
 20
142.766932966858
 11
773.145469944820
 21
143.534177936241
  0
LINE
  5
33A
100
AcDbEntity
  8
0
100
AcDbLine
 62
     2
  6
CONTINUOUS
 10
773.145469944820
 20
143.534177936241
 11
773.413955237292
 21
143.802663228713
  0
LINE
  5
33B
100
AcDbEntity
  8
0
100
AcDbLine
 62
     2
  6
CONTINUOUS
 10
771.151488798358
 20
141.673839971423
 11
771.781488798358
 21
142.303839971423
  0
LINE
  5
33C
100
AcDbEntity
  8
0
100
AcDbLine
 62
     2
  6
CONTINUOUS
 10
772.244581793793
 20
142.766932966858
 11
773.011826763176
 21
143.534177936241
  0
LINE
  5
33D
100
AcDbEntity
  8
0
100
AcDbLine
 62
     2
  6
CONTINUOUS
 10
773.011826763176
 20
143.534177936241
 11
773.495087512582
 21
144.017438685647
  0
LINE
  5
33E
100
AcDbEntity
  8
0
100
AcDbLine
 62
     2
  6
CONTINUOUS
 10
771.017845616713
 20
141.673839971423
 11
771.647845616713
 21
142.303839971423
  0
LINE
  5
33F
100
AcDbEntity
  8
0
100
AcDbLine
 62
     2
  6
CONTINUOUS
 10
772.110938612148
 20
142.766932966858
 11
772.878183581531
 21
143.534177936241
  0
LINE
  5
340
100
AcDbEntity
  8
0
100
AcDbLine
 62
     2
  6
CONTINUOUS
 10
772.878183581531
 20
143.534177936241
 11
773.576219787871
 21
144.232214142581
  0
LINE
  5
341
100
AcDbEntity
  8
0
100
AcDbLine
 62
     2
  6
CONTINUOUS
 10
770.884202435069
 20
141.673839971423
 11
771.514202435069
 21
142.303839971423
  0
LINE
  5
342
100
AcDbEntity
  8
0
100
AcDbLine
 62
     2
  6
CONTINUOUS
 10
771.977295430504
 20
142.766932966858
 11
773.615295430504
 21
144.404932966858
  0
LINE
  5
343
100
AcDbEntity
  8
0
100
AcDbLine
 62
     2
  6
CONTINUOUS
 10
770.750559253425
 20
141.673839971423
 11
771.380559253425
 21
142.303839971423
  0
LINE
  5
344
100
AcDbEntity
  8
0
100
AcDbLine
 62
     2
  6
CONTINUOUS
 10
771.843652248860
 20
142.766932966858
 11
773.481652248860
 21
144.404932966858
  0
LINE
  5
345
100
AcDbEntity
  8
0
100
AcDbLine
 62
     2
  6
CONTINUOUS
 10
770.616916071781
 20
141.673839971423
 11
770.619908440471
 21
141.676832340114
  0
LINE
  5
346
100
AcDbEntity
  8
0
100
AcDbLine
 62
     2
  6
CONTINUOUS
 10
770.619908440471
 20
141.676832340114
 11
771.246916071781
 21
142.303839971423
  0
LINE
  5
347
100
AcDbEntity
  8
0
100
AcDbLine
 62
     2
  6
CONTINUOUS
 10
771.710009067216
 20
142.766932966858
 11
773.348009067216
 21
144.404932966858
  0
LINE
  5
348
100
AcDbEntity
  8
0
100
AcDbLine
 62
     2
  6
CONTINUOUS
 10
770.499314378050
 20
141.689881459336
 11
771.113272890136
 21
142.303839971423
  0
LINE
  5
349
100
AcDbEntity
  8
0
100
AcDbLine
 62
     2
  6
CONTINUOUS
 10
771.668960480321
 20
142.859527561608
 11
773.214365885571
 21
144.404932966858
  0
LINE
  5
34A
100
AcDbEntity
  8
0
100
AcDbLine
 62
     2
  6
CONTINUOUS
 10
770.387309134585
 20
141.711519397517
 11
770.979629708492
 21
142.303839971423
  0
LINE
  5
34B
100
AcDbEntity
  8
0
100
AcDbLine
 62
     2
  6
CONTINUOUS
 10
771.750092757392
 20
143.074303020323
 11
773.080722703927
 21
144.404932966858
  0
LINE
  5
34C
100
AcDbEntity
  8
0
100
AcDbLine
 62
     2
  6
CONTINUOUS
 10
770.282583841039
 20
141.740437285614
 11
770.806465004429
 21
142.264318449005
  0
LINE
  5
34D
100
AcDbEntity
  8
0
100
AcDbLine
 62
     2
  6
CONTINUOUS
 10
770.806465004429
 20
142.264318449005
 11
770.845986526848
 21
142.303839971423
  0
LINE
  5
34E
100
AcDbEntity
  8
0
100
AcDbLine
 62
     2
  6
CONTINUOUS
 10
771.831225034463
 20
143.289078479038
 11
772.947079522283
 21
144.404932966858
  0
LINE
  5
34F
100
AcDbEntity
  8
0
100
AcDbLine
 62
     2
  6
CONTINUOUS
 10
770.184239889388
 20
141.775736515607
 11
770.712343345204
 21
142.303839971423
  0
LINE
  5
350
100
AcDbEntity
  8
0
100
AcDbLine
 62
     2
  6
CONTINUOUS
 10
770.712343345204
 20
142.303839971423
 11
770.806465004429
 21
142.397961630649
  0
LINE
  5
351
100
AcDbEntity
  8
0
100
AcDbLine
 62
     2
  6
CONTINUOUS
 10
771.912357311534
 20
143.503853937753
 11
772.813436340639
 21
144.404932966858
  0
LINE
  5
352
100
AcDbEntity
  8
0
100
AcDbLine
 62
     2
  6
CONTINUOUS
 10
770.091640124454
 20
141.816779932318
 11
770.578700163559
 21
142.303839971423
  0
LINE
  5
353
100
AcDbEntity
  8
0
100
AcDbLine
 62
     2
  6
CONTINUOUS
 10
770.578700163559
 20
142.303839971423
 11
770.806465004429
 21
142.531604812293
  0
LINE
  5
354
100
AcDbEntity
  8
0
100
AcDbLine
 62
     2
  6
CONTINUOUS
 10
772.018293158994
 20
143.743432966858
 11
772.679793158994
 21
144.404932966858
  0
LINE
  5
355
100
AcDbEntity
  8
0
100
AcDbLine
 62
     2
  6
CONTINUOUS
 10
770.004325497778
 20
141.863108487286
 11
770.445056981915
 21
142.303839971423
  0
LINE
  5
356
100
AcDbEntity
  8
0
100
AcDbLine
 62
     2
  6
CONTINUOUS
 10
770.445056981915
 20
142.303839971423
 11
770.806465004429
 21
142.665247993937
  0
LINE
  5
357
100
AcDbEntity
  8
0
100
AcDbLine
 62
     2
  6
CONTINUOUS
 10
771.884649977350
 20
143.743432966858
 11
772.074621865675
 21
143.933404855184
  0
LINE
  5
358
100
AcDbEntity
  8
0
100
AcDbLine
 62
     2
  6
CONTINUOUS
 10
772.074621865675
 20
143.933404855184
 11
772.546149977350
 21
144.404932966858
  0
LINE
  5
359
100
AcDbEntity
  8
0
100
AcDbLine
 62
     2
  6
CONTINUOUS
 10
769.921965568255
 20
141.914391739408
 11
770.311413800271
 21
142.303839971423
  0
LINE
  5
35A
100
AcDbEntity
  8
0
100
AcDbLine
 62
     2
  6
CONTINUOUS
 10
770.311413800271
 20
142.303839971423
 11
770.806465004429
 21
142.798891175582
  0
LINE
  5
35B
100
AcDbEntity
  8
0
100
AcDbLine
 62
     2
  6
CONTINUOUS
 10
771.751006795706
 20
143.743432966858
 11
772.412506795706
 21
144.404932966858
  0
LINE
  5
35C
100
AcDbEntity
  8
0
100
AcDbLine
 62
     2
  6
CONTINUOUS
 10
769.844328019036
 20
141.970397371832
 11
770.177770618626
 21
142.303839971423
  0
LINE
  5
35D
100
AcDbEntity
  8
0
100
AcDbLine
 62
     2
  6
CONTINUOUS
 10
770.177770618626
 20
142.303839971423
 11
770.806465004429
 21
142.932534357226
  0
LINE
  5
35E
100
AcDbEntity
  8
0
100
AcDbLine
 62
     2
  6
CONTINUOUS
 10
771.617363614061
 20
143.743432966858
 11
772.278863614061
 21
144.404932966858
  0
LINE
  5
35F
100
AcDbEntity
  8
0
100
AcDbLine
 62
     2
  6
CONTINUOUS
 10
769.771259689359
 20
142.030972223800
 11
770.044127436982
 21
142.303839971423
  0
LINE
  5
360
100
AcDbEntity
  8
0
100
AcDbLine
 62
     2
  6
CONTINUOUS
 10
770.044127436982
 20
142.303839971423
 11
770.806465004429
 21
143.066177538870
  0
LINE
  5
361
100
AcDbEntity
  8
0
100
AcDbLine
 62
     2
  6
CONTINUOUS
 10
771.483720432417
 20
143.743432966858
 11
772.145220432417
 21
144.404932966858
  0
LINE
  5
362
100
AcDbEntity
  8
0
100
AcDbLine
 62
     2
  6
CONTINUOUS
 10
769.702675143870
 20
142.096030859955
 11
770.806465004429
 21
143.199820720514
  0
LINE
  5
363
100
AcDbEntity
  8
0
100
AcDbLine
 62
     2
  6
CONTINUOUS
 10
771.350077250773
 20
143.743432966858
 11
772.011577250773
 21
144.404932966858
  0
LINE
  5
364
100
AcDbEntity
  8
0
100
AcDbLine
 62
     2
  6
CONTINUOUS
 10
769.638550658728
 20
142.165549556457
 11
770.806465004429
 21
143.333463902159
  0
LINE
  5
365
100
AcDbEntity
  8
0
100
AcDbLine
 62
     2
  6
CONTINUOUS
 10
771.216434069129
 20
143.743432966858
 11
771.877934069129
 21
144.404932966858
  0
LINE
  5
366
100
AcDbEntity
  8
0
100
AcDbLine
 62
     2
  6
CONTINUOUS
 10
769.578922597073
 20
142.239564676447
 11
770.806465004429
 21
143.467107083803
  0
LINE
  5
367
100
AcDbEntity
  8
0
100
AcDbLine
 62
     2
  6
CONTINUOUS
 10
771.082790887484
 20
143.743432966858
 11
771.744290887484
 21
144.404932966858
  0
LINE
  5
368
100
AcDbEntity
  8
0
100
AcDbLine
 62
     2
  6
CONTINUOUS
 10
769.523889907091
 20
142.318175168109
 11
770.806465004429
 21
143.600750265447
  0
LINE
  5
369
100
AcDbEntity
  8
0
100
AcDbLine
 62
     2
  6
CONTINUOUS
 10
770.949147705840
 20
143.743432966858
 11
771.610647705840
 21
144.404932966858
  0
LINE
  5
36A
100
AcDbEntity
  8
0
100
AcDbLine
 62
     2
  6
CONTINUOUS
 10
769.473621154780
 20
142.401549597442
 11
770.806465004429
 21
143.734393447092
  0
LINE
  5
36B
100
AcDbEntity
  8
0
100
AcDbLine
 62
     2
  6
CONTINUOUS
 10
770.806465004429
 20
143.734393447092
 11
770.815504524196
 21
143.743432966858
  0
LINE
  5
36C
100
AcDbEntity
  8
0
100
AcDbLine
 62
     2
  6
CONTINUOUS
 10
770.815504524196
 20
143.743432966858
 11
771.477004524196
 21
144.404932966858
  0
LINE
  5
36D
100
AcDbEntity
  8
0
100
AcDbLine
 62
     2
  6
CONTINUOUS
 10
769.428367309626
 20
142.489938933932
 11
770.681861342552
 21
143.743432966858
  0
LINE
  5
36E
100
AcDbEntity
  8
0
100
AcDbLine
 62
     2
  6
CONTINUOUS
 10
770.681861342552
 20
143.743432966858
 11
770.806465004429
 21
143.868036628736
  0
LINE
  5
36F
100
AcDbEntity
  8
0
100
AcDbLine
 62
     2
  6
CONTINUOUS
 10
770.806465004429
 20
143.868036628736
 11
771.343361342551
 21
144.404932966858
  0
LINE
  5
370
100
AcDbEntity
  8
0
100
AcDbLine
 62
     2
  6
CONTINUOUS
 10
769.388482708980
 20
142.583697514931
 11
770.548218160907
 21
143.743432966858
  0
LINE
  5
371
100
AcDbEntity
  8
0
100
AcDbLine
 62
     2
  6
CONTINUOUS
 10
770.548218160907
 20
143.743432966858
 11
770.806465004429
 21
144.001679810380
  0
LINE
  5
372
100
AcDbEntity
  8
0
100
AcDbLine
 62
     2
  6
CONTINUOUS
 10
770.806465004429
 20
144.001679810380
 11
771.209718160907
 21
144.404932966858
  0
LINE
  5
373
100
AcDbEntity
  8
0
100
AcDbLine
 62
     2
  6
CONTINUOUS
 10
769.354458733053
 20
142.683316720648
 11
770.806465004429
 21
144.135322992024
  0
LINE
  5
374
100
AcDbEntity
  8
0
100
AcDbLine
 62
     2
  6
CONTINUOUS
 10
770.806465004429
 20
144.135322992024
 11
771.076074979263
 21
144.404932966858
  0
LINE
  5
375
100
AcDbEntity
  8
0
100
AcDbLine
 62
     2
  6
CONTINUOUS
 10
769.326978799223
 20
142.789479968462
 11
770.942431797619
 21
144.404932966858
  0
LINE
  5
376
100
AcDbEntity
  8
0
100
AcDbLine
 62
     2
  6
CONTINUOUS
 10
769.307011927719
 20
142.903156278603
 11
770.806465004429
 21
144.402609355313
  0
LINE
  5
377
100
AcDbEntity
  8
0
100
AcDbLine
 62
     2
  6
CONTINUOUS
 10
769.295982371667
 20
143.025769904195
 11
770.675145434330
 21
144.404932966858
  0
LINE
  5
378
100
AcDbEntity
  8
0
100
AcDbLine
 62
     2
  6
CONTINUOUS
 10
770.675145434330
 20
144.404932966858
 11
770.806465004429
 21
144.536252536957
  0
LINE
  5
379
100
AcDbEntity
  8
0
100
AcDbLine
 62
     2
  6
CONTINUOUS
 10
769.294465004429
 20
143.157895718601
 11
770.541502252686
 21
144.404932966858
  0
LINE
  5
37A
100
AcDbEntity
  8
0
100
AcDbLine
 62
     2
  6
CONTINUOUS
 10
770.541502252686
 20
144.404932966858
 11
770.806465004429
 21
144.669895718602
  0
LINE
  5
37B
100
AcDbEntity
  8
0
100
AcDbLine
 62
     2
  6
CONTINUOUS
 10
769.294465004429
 20
143.291538900246
 11
770.407859071042
 21
144.404932966858
  0
LINE
  5
37C
100
AcDbEntity
  8
0
100
AcDbLine
 62
     2
  6
CONTINUOUS
 10
770.407859071042
 20
144.404932966858
 11
770.806465004429
 21
144.803538900246
  0
LINE
  5
37D
100
AcDbEntity
  8
0
100
AcDbLine
 62
     2
  6
CONTINUOUS
 10
769.294465004429
 20
143.425182081890
 11
770.274215889397
 21
144.404932966858
  0
LINE
  5
37E
100
AcDbEntity
  8
0
100
AcDbLine
 62
     2
  6
CONTINUOUS
 10
770.274215889397
 20
144.404932966858
 11
770.806465004429
 21
144.937182081890
  0
LINE
  5
37F
100
AcDbEntity
  8
0
100
AcDbLine
 62
     2
  6
CONTINUOUS
 10
769.294465004429
 20
143.558825263534
 11
770.140572707753
 21
144.404932966858
  0
LINE
  5
380
100
AcDbEntity
  8
0
100
AcDbLine
 62
     2
  6
CONTINUOUS
 10
770.140572707753
 20
144.404932966858
 11
770.707572707753
 21
144.971932966858
  0
LINE
  5
381
100
AcDbEntity
  8
0
100
AcDbLine
 62
     2
  6
CONTINUOUS
 10
769.294465004429
 20
143.692468445179
 11
769.345429526109
 21
143.743432966858
  0
LINE
  5
382
100
AcDbEntity
  8
0
100
AcDbLine
 62
     2
  6
CONTINUOUS
 10
769.345429526109
 20
143.743432966858
 11
770.006929526109
 21
144.404932966858
  0
LINE
  5
383
100
AcDbEntity
  8
0
100
AcDbLine
 62
     2
  6
CONTINUOUS
 10
770.006929526109
 20
144.404932966858
 11
770.573929526109
 21
144.971932966858
  0
LINE
  5
384
100
AcDbEntity
  8
0
100
AcDbLine
 62
     2
  6
CONTINUOUS
 10
769.211786344465
 20
143.743432966858
 11
770.440286344465
 21
144.971932966858
  0
LINE
  5
385
100
AcDbEntity
  8
0
100
AcDbLine
 62
     2
  6
CONTINUOUS
 10
769.078143162820
 20
143.743432966858
 11
770.306643162820
 21
144.971932966858
  0
LINE
  5
386
100
AcDbEntity
  8
0
100
AcDbLine
 62
     2
  6
CONTINUOUS
 10
766.588531954866
 20
141.673839971423
 11
766.635219685571
 21
141.720527702128
  0
LINE
  5
387
100
AcDbEntity
  8
0
100
AcDbLine
 62
     2
  6
CONTINUOUS
 10
768.944499981176
 20
143.743432966858
 11
770.172999981176
 21
144.971932966858
  0
LINE
  5
388
100
AcDbEntity
  8
0
100
AcDbLine
 62
     2
  6
CONTINUOUS
 10
766.454888773221
 20
141.673839971423
 11
766.635219685571
 21
141.854170883773
  0
LINE
  5
389
100
AcDbEntity
  8
0
100
AcDbLine
 62
     2
  6
CONTINUOUS
 10
768.903263977833
 20
143.835840145160
 11
770.039356799532
 21
144.971932966858
  0
LINE
  5
38A
100
AcDbEntity
  8
0
100
AcDbLine
 62
     2
  6
CONTINUOUS
 10
766.321245591577
 20
141.673839971423
 11
766.635219685571
 21
141.987814065417
  0
LINE
  5
38B
100
AcDbEntity
  8
0
100
AcDbLine
 62
     2
  6
CONTINUOUS
 10
768.886558578883
 20
143.952777927854
 11
769.294465004429
 21
144.360684353400
  0
LINE
  5
38C
100
AcDbEntity
  8
0
100
AcDbLine
 62
     2
  6
CONTINUOUS
 10
769.294465004429
 20
144.360684353400
 11
769.338713617887
 21
144.404932966858
  0
LINE
  5
38D
100
AcDbEntity
  8
0
100
AcDbLine
 62
     2
  6
CONTINUOUS
 10
769.338713617887
 20
144.404932966858
 11
769.905713617887
 21
144.971932966858
  0
LINE
  5
38E
100
AcDbEntity
  8
0
100
AcDbLine
 62
     2
  6
CONTINUOUS
 10
766.187602409933
 20
141.673839971423
 11
766.635219685571
 21
142.121457247061
  0
LINE
  5
38F
100
AcDbEntity
  8
0
100
AcDbLine
 62
     2
  6
CONTINUOUS
 10
768.869853179933
 20
144.069715710548
 11
769.205070436243
 21
144.404932966858
  0
LINE
  5
390
100
AcDbEntity
  8
0
100
AcDbLine
 62
     2
  6
CONTINUOUS
 10
769.294465004429
 20
144.494327535044
 11
769.772070436243
 21
144.971932966858
  0
LINE
  5
391
100
AcDbEntity
  8
0
100
AcDbLine
 62
     2
  6
CONTINUOUS
 10
766.053959228289
 20
141.673839971423
 11
766.635219685571
 21
142.255100428706
  0
LINE
  5
392
100
AcDbEntity
  8
0
100
AcDbLine
 62
     2
  6
CONTINUOUS
 10
768.853147780983
 20
144.186653493242
 11
769.071427254599
 21
144.404932966858
  0
LINE
  5
393
100
AcDbEntity
  8
0
100
AcDbLine
 62
     2
  6
CONTINUOUS
 10
769.294465004429
 20
144.627970716688
 11
769.638427254599
 21
144.971932966858
  0
LINE
  5
394
100
AcDbEntity
  8
0
100
AcDbLine
 62
     2
  6
CONTINUOUS
 10
765.920316046644
 20
141.673839971423
 11
766.635219685571
 21
142.388743610350
  0
LINE
  5
395
100
AcDbEntity
  8
0
100
AcDbLine
 62
     2
  6
CONTINUOUS
 10
768.836442382033
 20
144.303591275936
 11
768.937784072955
 21
144.404932966858
  0
LINE
  5
396
100
AcDbEntity
  8
0
100
AcDbLine
 62
     2
  6
CONTINUOUS
 10
769.294465004429
 20
144.761613898333
 11
769.504784072955
 21
144.971932966858
  0
LINE
  5
397
100
AcDbEntity
  8
0
100
AcDbLine
 62
     2
  6
CONTINUOUS
 10
765.786672865000
 20
141.673839971423
 11
766.635219685571
 21
142.522386791994
  0
LINE
  5
398
100
AcDbEntity
  8
0
100
AcDbLine
 62
     2
  6
CONTINUOUS
 10
769.294465004429
 20
144.895257079977
 11
769.371140891310
 21
144.971932966858
  0
LINE
  5
399
100
AcDbEntity
  8
0
100
AcDbLine
 62
     2
  6
CONTINUOUS
 10
765.653029683356
 20
141.673839971423
 11
766.635219685571
 21
142.656029973638
  0
LINE
  5
39A
100
AcDbEntity
  8
0
100
AcDbLine
 62
     2
  6
CONTINUOUS
 10
765.519386501712
 20
141.673839971423
 11
766.635219685571
 21
142.789673155283
  0
LINE
  5
39B
100
AcDbEntity
  8
0
100
AcDbLine
 62
     2
  6
CONTINUOUS
 10
765.385743320067
 20
141.673839971423
 11
766.635219685571
 21
142.923316336927
  0
LINE
  5
39C
100
AcDbEntity
  8
0
100
AcDbLine
 62
     2
  6
CONTINUOUS
 10
765.252100138423
 20
141.673839971423
 11
766.635219685571
 21
143.056959518571
  0
LINE
  5
39D
100
AcDbEntity
  8
0
100
AcDbLine
 62
     2
  6
CONTINUOUS
 10
765.118456956779
 20
141.673839971423
 11
766.635219685571
 21
143.190602700216
  0
LINE
  5
39E
100
AcDbEntity
  8
0
100
AcDbLine
 62
     2
  6
CONTINUOUS
 10
766.129365138725
 20
142.818391335014
 11
765.060219685571
 21
141.749245881860
  0
LINE
  5
39F
100
AcDbEntity
  8
0
100
AcDbLine
 62
     2
  6
CONTINUOUS
 10
765.995721957081
 20
142.818391335014
 11
765.060219685571
 21
141.882889063504
  0
LINE
  5
3A0
100
AcDbEntity
  8
0
100
AcDbLine
 62
     2
  6
CONTINUOUS
 10
765.862078775437
 20
142.818391335014
 11
765.060219685571
 21
142.016532245148
  0
LINE
  5
3A1
100
AcDbEntity
  8
0
100
AcDbLine
 62
     2
  6
CONTINUOUS
 10
767.725085414045
 20
144.681397973622
 11
768.015620407281
 21
144.971932966858
  0
LINE
  5
3A2
100
AcDbEntity
  8
0
100
AcDbLine
 62
     2
  6
CONTINUOUS
 10
765.728435593792
 20
142.818391335014
 11
765.060219685571
 21
142.150175426793
  0
LINE
  5
3A3
100
AcDbEntity
  8
0
100
AcDbLine
 62
     2
  6
CONTINUOUS
 10
767.086567990633
 20
144.176523731855
 11
767.881977225637
 21
144.971932966858
  0
LINE
  5
3A4
100
AcDbEntity
  8
0
100
AcDbLine
 62
     2
  6
CONTINUOUS
 10
765.594792412148
 20
142.818391335014
 11
765.060219685571
 21
142.283818608437
  0
LINE
  5
3A5
100
AcDbEntity
  8
0
100
AcDbLine
 62
     2
  6
CONTINUOUS
 10
766.448050567222
 20
143.671649490087
 11
767.748334043992
 21
144.971932966858
  0
LINE
  5
3A6
100
AcDbEntity
  8
0
100
AcDbLine
 62
     2
  6
CONTINUOUS
 10
765.461149230504
 20
142.818391335014
 11
765.060219685571
 21
142.417461790081
  0
LINE
  5
3A7
100
AcDbEntity
  8
0
100
AcDbLine
 62
     2
  6
CONTINUOUS
 10
765.877689193276
 20
143.234931297786
 11
767.614690862348
 21
144.971932966858
  0
LINE
  5
3A8
100
AcDbEntity
  8
0
100
AcDbLine
 62
     2
  6
CONTINUOUS
 10
765.327506048860
 20
142.818391335014
 11
765.060219685571
 21
142.551104971725
  0
LINE
  5
3A9
100
AcDbEntity
  8
0
100
AcDbLine
 62
     2
  6
CONTINUOUS
 10
765.744046011632
 20
143.234931297786
 11
767.481047680704
 21
144.971932966858
  0
LINE
  5
3AA
100
AcDbEntity
  8
0
100
AcDbLine
 62
     2
  6
CONTINUOUS
 10
765.193862867215
 20
142.818391335014
 11
765.060219685571
 21
142.684748153370
  0
LINE
  5
3AB
100
AcDbEntity
  8
0
100
AcDbLine
 62
     2
  6
CONTINUOUS
 10
765.610402829988
 20
143.234931297786
 11
767.347404499060
 21
144.971932966858
  0
LINE
  5
3AC
100
AcDbEntity
  8
0
100
AcDbLine
 62
     2
  6
CONTINUOUS
 10
765.476759648344
 20
143.234931297786
 11
767.213761317415
 21
144.971932966858
  0
LINE
  5
3AD
100
AcDbEntity
  8
0
100
AcDbLine
 62
     2
  6
CONTINUOUS
 10
765.343116466699
 20
143.234931297786
 11
767.080118135771
 21
144.971932966858
  0
LINE
  5
3AE
100
AcDbEntity
  8
0
100
AcDbLine
 62
     2
  6
CONTINUOUS
 10
765.209473285055
 20
143.234931297786
 11
766.946474954127
 21
144.971932966858
  0
LINE
  5
3AF
100
AcDbEntity
  8
0
100
AcDbLine
 62
     2
  6
CONTINUOUS
 10
765.075830103411
 20
143.234931297786
 11
766.812831772482
 21
144.971932966858
  0
LINE
  5
3B0
100
AcDbEntity
  8
0
100
AcDbLine
 62
     2
  6
CONTINUOUS
 10
764.942186921767
 20
143.234931297786
 11
766.679188590838
 21
144.971932966858
  0
LINE
  5
3B1
100
AcDbEntity
  8
0
100
AcDbLine
 62
     2
  6
CONTINUOUS
 10
764.808543740122
 20
143.234931297786
 11
766.545545409194
 21
144.971932966858
  0
LINE
  5
3B2
100
AcDbEntity
  8
0
100
AcDbLine
 62
     2
  6
CONTINUOUS
 10
764.674900558478
 20
143.234931297786
 11
766.411902227550
 21
144.971932966858
  0
LINE
  5
3B3
100
AcDbEntity
  8
0
100
AcDbLine
 62
     2
  6
CONTINUOUS
 10
764.541257376834
 20
143.234931297786
 11
766.278259045905
 21
144.971932966858
  0
LINE
  5
3B4
100
AcDbEntity
  8
0
100
AcDbLine
 62
     2
  6
CONTINUOUS
 10
764.407614195189
 20
143.234931297786
 11
766.144615864261
 21
144.971932966858
  0
LINE
  5
3B5
100
AcDbEntity
  8
0
100
AcDbLine
 62
     2
  6
CONTINUOUS
 10
764.273971013545
 20
143.234931297786
 11
766.010972682617
 21
144.971932966858
  0
LINE
  5
3B6
100
AcDbEntity
  8
0
100
AcDbLine
 62
     2
  6
CONTINUOUS
 10
764.140327831901
 20
143.234931297786
 11
765.877329500973
 21
144.971932966858
  0
LINE
  5
3B7
100
AcDbEntity
  8
0
100
AcDbLine
 62
     2
  6
CONTINUOUS
 10
764.006684650257
 20
143.234931297786
 11
765.743686319328
 21
144.971932966858
  0
LINE
  5
3B8
100
AcDbEntity
  8
0
100
AcDbLine
 62
     2
  6
CONTINUOUS
 10
761.904885992369
 20
141.887255055106
 11
762.360983098426
 21
142.343352161163
  0
LINE
  5
3B9
100
AcDbEntity
  8
0
100
AcDbLine
 62
     2
  6
CONTINUOUS
 10
763.873041468612
 20
143.234931297786
 11
765.289336699892
 21
144.651226529066
  0
LINE
  5
3BA
100
AcDbEntity
  8
0
100
AcDbLine
 62
     2
  6
CONTINUOUS
 10
761.644234272335
 20
141.760246516716
 11
762.487991636816
 21
142.604003881197
  0
LINE
  5
3BB
100
AcDbEntity
  8
0
100
AcDbLine
 62
     2
  6
CONTINUOUS
 10
763.739398286968
 20
143.234931297786
 11
764.621120881954
 21
144.116653892772
  0
LINE
  5
3BC
100
AcDbEntity
  8
0
100
AcDbLine
 62
     2
  6
CONTINUOUS
 10
761.456127620008
 20
141.705783046034
 11
762.542455107498
 21
142.792110533524
  0
LINE
  5
3BD
100
AcDbEntity
  8
0
100
AcDbLine
 62
     2
  6
CONTINUOUS
 10
763.605755105324
 20
143.234931297786
 11
763.952905064016
 21
143.582081256478
  0
LINE
  5
3BE
100
AcDbEntity
  8
0
100
AcDbLine
 62
     2
  6
CONTINUOUS
 10
761.290541363753
 20
141.673839971423
 11
761.297535262521
 21
141.680833870191
  0
LINE
  5
3BF
100
AcDbEntity
  8
0
100
AcDbLine
 62
     2
  6
CONTINUOUS
 10
761.297535262521
 20
141.680833870191
 11
762.567404283341
 21
142.950702891011
  0
LINE
  5
3C0
100
AcDbEntity
  8
0
100
AcDbLine
 62
     2
  6
CONTINUOUS
 10
762.567404283341
 20
142.950702891011
 11
762.574398182109
 21
142.957696789779
  0
LINE
  5
3C1
100
AcDbEntity
  8
0
100
AcDbLine
 62
     2
  6
CONTINUOUS
 10
758.089951073988
 20
144.754479218939
 11
758.307404821907
 21
144.971932966858
  0
LINE
  5
3C2
100
AcDbEntity
  8
0
100
AcDbLine
 62
     2
  6
CONTINUOUS
 10
758.020378427802
 20
144.551263391109
 11
758.441048003552
 21
144.971932966858
  0
LINE
  5
3C3
100
AcDbEntity
  8
0
100
AcDbLine
 62
     2
  6
CONTINUOUS
 10
757.950805781617
 20
144.348047563279
 11
758.574691185196
 21
144.971932966858
  0
LINE
  5
3C4
100
AcDbEntity
  8
0
100
AcDbLine
 62
     2
  6
CONTINUOUS
 10
757.881233135431
 20
144.144831735449
 11
758.708334366840
 21
144.971932966858
  0
LINE
  5
3C5
100
AcDbEntity
  8
0
100
AcDbLine
 62
     2
  6
CONTINUOUS
 10
757.811660489246
 20
143.941615907619
 11
758.841977548484
 21
144.971932966858
  0
LINE
  5
3C6
100
AcDbEntity
  8
0
100
AcDbLine
 62
     2
  6
CONTINUOUS
 10
757.742087843060
 20
143.738400079789
 11
758.975620730129
 21
144.971932966858
  0
LINE
  5
3C7
100
AcDbEntity
  8
0
100
AcDbLine
 62
     2
  6
CONTINUOUS
 10
757.672515196874
 20
143.535184251960
 11
759.109263911773
 21
144.971932966858
  0
LINE
  5
3C8
100
AcDbEntity
  8
0
100
AcDbLine
 62
     2
  6
CONTINUOUS
 10
757.602942550689
 20
143.331968424130
 11
759.242907093417
 21
144.971932966858
  0
LINE
  5
3C9
100
AcDbEntity
  8
0
100
AcDbLine
 62
     2
  6
CONTINUOUS
 10
757.533369904503
 20
143.128752596300
 11
757.536373416607
 21
143.131756108403
  0
LINE
  5
3CA
100
AcDbEntity
  8
0
100
AcDbLine
 62
     2
  6
CONTINUOUS
 10
757.536373416607
 20
143.131756108403
 11
759.376550275062
 21
144.971932966858
  0
LINE
  5
3CB
100
AcDbEntity
  8
0
100
AcDbLine
 62
     2
  6
CONTINUOUS
 10
757.670016598251
 20
143.131756108403
 11
759.510193456706
 21
144.971932966858
  0
LINE
  5
3CC
100
AcDbEntity
  8
0
100
AcDbLine
 62
     2
  6
CONTINUOUS
 10
757.803659779895
 20
143.131756108403
 11
759.643836638350
 21
144.971932966858
  0
LINE
  5
3CD
100
AcDbEntity
  8
0
100
AcDbLine
 62
     2
  6
CONTINUOUS
 10
757.937302961539
 20
143.131756108403
 11
759.777479819994
 21
144.971932966858
  0
LINE
  5
3CE
100
AcDbEntity
  8
0
100
AcDbLine
 62
     2
  6
CONTINUOUS
 10
758.070946143184
 20
143.131756108403
 11
759.911123001639
 21
144.971932966858
  0
LINE
  5
3CF
100
AcDbEntity
  8
0
100
AcDbLine
 62
     2
  6
CONTINUOUS
 10
759.423884282093
 20
144.351051065668
 11
758.204589324828
 21
143.131756108403
  0
LINE
  5
3D0
100
AcDbEntity
  8
0
100
AcDbLine
 62
     2
  6
CONTINUOUS
 10
759.540766183283
 20
144.467932966858
 11
759.580428160330
 21
144.507594943906
  0
LINE
  5
3D1
100
AcDbEntity
  8
0
100
AcDbLine
 62
     2
  6
CONTINUOUS
 10
759.580428160330
 20
144.507594943906
 11
760.044766183283
 21
144.971932966858
  0
LINE
  5
3D2
100
AcDbEntity
  8
0
100
AcDbLine
 62
     2
  6
CONTINUOUS
 10
759.354311637526
 20
144.147835239457
 11
758.338232506472
 21
143.131756108403
  0
LINE
  5
3D3
100
AcDbEntity
  8
0
100
AcDbLine
 62
     2
  6
CONTINUOUS
 10
759.674409364927
 20
144.467932966858
 11
760.178409364927
 21
144.971932966858
  0
LINE
  5
3D4
100
AcDbEntity
  8
0
100
AcDbLine
 62
     2
  6
CONTINUOUS
 10
759.284738992960
 20
143.944619413246
 11
758.471875688117
 21
143.131756108403
  0
LINE
  5
3D5
100
AcDbEntity
  8
0
100
AcDbLine
 62
     2
  6
CONTINUOUS
 10
759.808052546572
 20
144.467932966858
 11
760.312052546572
 21
144.971932966858
  0
LINE
  5
3D6
100
AcDbEntity
  8
0
100
AcDbLine
 62
     2
  6
CONTINUOUS
 10
759.215166348393
 20
143.741403587036
 11
758.605518869761
 21
143.131756108403
  0
LINE
  5
3D7
100
AcDbEntity
  8
0
100
AcDbLine
 62
     2
  6
CONTINUOUS
 10
759.941695728216
 20
144.467932966858
 11
760.445695728216
 21
144.971932966858
  0
LINE
  5
3D8
100
AcDbEntity
  8
0
100
AcDbLine
 62
     2
  6
CONTINUOUS
 10
757.849398182109
 20
142.241992239107
 11
757.911245914425
 21
142.303839971423
  0
LINE
  5
3D9
100
AcDbEntity
  8
0
100
AcDbLine
 62
     2
  6
CONTINUOUS
 10
759.145593703827
 20
143.538187760825
 11
758.739162051405
 21
143.131756108403
  0
LINE
  5
3DA
100
AcDbEntity
  8
0
100
AcDbLine
 62
     2
  6
CONTINUOUS
 10
760.075338909860
 20
144.467932966858
 11
760.579338909860
 21
144.971932966858
  0
LINE
  5
3DB
100
AcDbEntity
  8
0
100
AcDbLine
 62
     2
  6
CONTINUOUS
 10
757.849398182109
 20
142.108349057463
 11
758.044889096069
 21
142.303839971423
  0
LINE
  5
3DC
100
AcDbEntity
  8
0
100
AcDbLine
 62
     2
  6
CONTINUOUS
 10
759.076021059260
 20
143.334971934614
 11
758.872805233049
 21
143.131756108403
  0
LINE
  5
3DD
100
AcDbEntity
  8
0
100
AcDbLine
 62
     2
  6
CONTINUOUS
 10
760.208982091504
 20
144.467932966858
 11
760.712982091504
 21
144.971932966858
  0
LINE
  5
3DE
100
AcDbEntity
  8
0
100
AcDbLine
 62
     2
  6
CONTINUOUS
 10
757.849398182109
 20
141.974705875818
 11
758.178532277714
 21
142.303839971423
  0
LINE
  5
3DF
100
AcDbEntity
  8
0
100
AcDbLine
 62
     2
  6
CONTINUOUS
 10
760.342625273149
 20
144.467932966858
 11
760.846625273149
 21
144.971932966858
  0
LINE
  5
3E0
100
AcDbEntity
  8
0
100
AcDbLine
 62
     2
  6
CONTINUOUS
 10
757.849398182109
 20
141.841062694174
 11
758.312175459358
 21
142.303839971423
  0
LINE
  5
3E1
100
AcDbEntity
  8
0
100
AcDbLine
 62
     2
  6
CONTINUOUS
 10
760.476268454793
 20
144.467932966858
 11
760.980268454793
 21
144.971932966858
  0
LINE
  5
3E2
100
AcDbEntity
  8
0
100
AcDbLine
 62
     2
  6
CONTINUOUS
 10
759.700518951771
 20
143.558540282192
 11
759.903734777982
 21
143.761756108403
  0
LINE
  5
3E3
100
AcDbEntity
  8
0
100
AcDbLine
 62
     2
  6
CONTINUOUS
 10
760.609911636437
 20
144.467932966858
 11
761.113911636437
 21
144.971932966858
  0
LINE
  5
3E4
100
AcDbEntity
  8
0
100
AcDbLine
 62
     2
  6
CONTINUOUS
 10
759.630946307205
 20
143.355324455982
 11
760.037377959626
 21
143.761756108403
  0
LINE
  5
3E5
100
AcDbEntity
  8
0
100
AcDbLine
 62
     2
  6
CONTINUOUS
 10
760.743554818081
 20
144.467932966858
 11
761.247554818081
 21
144.971932966858
  0
LINE
  5
3E6
100
AcDbEntity
  8
0
100
AcDbLine
 62
     2
  6
CONTINUOUS
 10
758.083105004291
 20
141.673839971423
 11
758.713105004291
 21
142.303839971423
  0
LINE
  5
3E7
100
AcDbEntity
  8
0
100
AcDbLine
 62
     2
  6
CONTINUOUS
 10
759.561373662639
 20
143.152108629771
 11
760.171021141271
 21
143.761756108403
  0
LINE
  5
3E8
100
AcDbEntity
  8
0
100
AcDbLine
 62
     2
  6
CONTINUOUS
 10
760.877197999726
 20
144.467932966858
 11
760.999398182109
 21
144.590133149241
  0
LINE
  5
3E9
100
AcDbEntity
  8
0
100
AcDbLine
 62
     2
  6
CONTINUOUS
 10
760.999398182109
 20
144.590133149241
 11
761.381197999726
 21
144.971932966858
  0
LINE
  5
3EA
100
AcDbEntity
  8
0
100
AcDbLine
 62
     2
  6
CONTINUOUS
 10
758.216748185935
 20
141.673839971423
 11
758.846748185935
 21
142.303839971423
  0
LINE
  5
3EB
100
AcDbEntity
  8
0
100
AcDbLine
 62
     2
  6
CONTINUOUS
 10
759.674664322915
 20
143.131756108403
 11
760.304664322915
 21
143.761756108403
  0
LINE
  5
3EC
100
AcDbEntity
  8
0
100
AcDbLine
 62
     2
  6
CONTINUOUS
 10
760.999398182109
 20
144.456489967597
 11
761.010841181370
 21
144.467932966858
  0
LINE
  5
3ED
100
AcDbEntity
  8
0
100
AcDbLine
 62
     2
  6
CONTINUOUS
 10
761.010841181370
 20
144.467932966858
 11
761.514841181370
 21
144.971932966858
  0
LINE
  5
3EE
100
AcDbEntity
  8
0
100
AcDbLine
 62
     2
  6
CONTINUOUS
 10
758.350391367579
 20
141.673839971423
 11
758.980391367579
 21
142.303839971423
  0
LINE
  5
3EF
100
AcDbEntity
  8
0
100
AcDbLine
 62
     2
  6
CONTINUOUS
 10
759.808307504559
 20
143.131756108403
 11
760.438307504559
 21
143.761756108403
  0
LINE
  5
3F0
100
AcDbEntity
  8
0
100
AcDbLine
 62
     2
  6
CONTINUOUS
 10
760.999398182109
 20
144.322846785953
 11
761.144484363014
 21
144.467932966858
  0
LINE
  5
3F1
100
AcDbEntity
  8
0
100
AcDbLine
 62
     2
  6
CONTINUOUS
 10
761.144484363014
 20
144.467932966858
 11
761.648484363014
 21
144.971932966858
  0
LINE
  5
3F2
100
AcDbEntity
  8
0
100
AcDbLine
 62
     2
  6
CONTINUOUS
 10
758.484034549224
 20
141.673839971423
 11
759.114034549224
 21
142.303839971423
  0
LINE
  5
3F3
100
AcDbEntity
  8
0
100
AcDbLine
 62
     2
  6
CONTINUOUS
 10
759.941950686204
 20
143.131756108403
 11
760.571950686204
 21
143.761756108403
  0
LINE
  5
3F4
100
AcDbEntity
  8
0
100
AcDbLine
 62
     2
  6
CONTINUOUS
 10
760.999398182109
 20
144.189203604309
 11
761.278127544658
 21
144.467932966858
  0
LINE
  5
3F5
100
AcDbEntity
  8
0
100
AcDbLine
 62
     2
  6
CONTINUOUS
 10
761.278127544658
 20
144.467932966858
 11
761.782127544659
 21
144.971932966858
  0
LINE
  5
3F6
100
AcDbEntity
  8
0
100
AcDbLine
 62
     2
  6
CONTINUOUS
 10
758.617677730868
 20
141.673839971423
 11
759.247677730868
 21
142.303839971423
  0
LINE
  5
3F7
100
AcDbEntity
  8
0
100
AcDbLine
 62
     2
  6
CONTINUOUS
 10
760.075593867848
 20
143.131756108403
 11
760.705593867848
 21
143.761756108403
  0
LINE
  5
3F8
100
AcDbEntity
  8
0
100
AcDbLine
 62
     2
  6
CONTINUOUS
 10
760.999398182109
 20
144.055560422664
 11
761.411770726303
 21
144.467932966858
  0
LINE
  5
3F9
100
AcDbEntity
  8
0
100
AcDbLine
 62
     2
  6
CONTINUOUS
 10
761.411770726303
 20
144.467932966858
 11
761.915770726303
 21
144.971932966858
  0
LINE
  5
3FA
100
AcDbEntity
  8
0
100
AcDbLine
 62
     2
  6
CONTINUOUS
 10
758.751320912512
 20
141.673839971423
 11
759.381320912512
 21
142.303839971423
  0
LINE
  5
3FB
100
AcDbEntity
  8
0
100
AcDbLine
 62
     2
  6
CONTINUOUS
 10
760.209237049492
 20
143.131756108403
 11
760.839237049492
 21
143.761756108403
  0
LINE
  5
3FC
100
AcDbEntity
  8
0
100
AcDbLine
 62
     2
  6
CONTINUOUS
 10
760.999398182109
 20
143.921917241020
 11
762.049413907947
 21
144.971932966858
  0
LINE
  5
3FD
100
AcDbEntity
  8
0
100
AcDbLine
 62
     2
  6
CONTINUOUS
 10
758.884964094156
 20
141.673839971423
 11
759.514964094156
 21
142.303839971423
  0
LINE
  5
3FE
100
AcDbEntity
  8
0
100
AcDbLine
 62
     2
  6
CONTINUOUS
 10
760.342880231136
 20
143.131756108403
 11
760.972880231136
 21
143.761756108403
  0
LINE
  5
3FF
100
AcDbEntity
  8
0
100
AcDbLine
 62
     2
  6
CONTINUOUS
 10
760.999398182109
 20
143.788274059376
 11
762.183057089591
 21
144.971932966858
  0
LINE
  5
400
100
AcDbEntity
  8
0
100
AcDbLine
 62
     2
  6
CONTINUOUS
 10
759.018607275801
 20
141.673839971423
 11
759.648607275801
 21
142.303839971423
  0
LINE
  5
401
100
AcDbEntity
  8
0
100
AcDbLine
 62
     2
  6
CONTINUOUS
 10
760.476523412781
 20
143.131756108403
 11
761.106523412781
 21
143.761756108403
  0
LINE
  5
402
100
AcDbEntity
  8
0
100
AcDbLine
 62
     2
  6
CONTINUOUS
 10
761.106523412781
 20
143.761756108403
 11
762.316700271236
 21
144.971932966858
  0
LINE
  5
403
100
AcDbEntity
  8
0
100
AcDbLine
 62
     2
  6
CONTINUOUS
 10
759.152250457445
 20
141.673839971423
 11
759.782250457445
 21
142.303839971423
  0
LINE
  5
404
100
AcDbEntity
  8
0
100
AcDbLine
 62
     2
  6
CONTINUOUS
 10
760.610166594425
 20
143.131756108403
 11
761.240166594425
 21
143.761756108403
  0
LINE
  5
405
100
AcDbEntity
  8
0
100
AcDbLine
 62
     2
  6
CONTINUOUS
 10
761.240166594425
 20
143.761756108403
 11
762.450343452880
 21
144.971932966858
  0
LINE
  5
406
100
AcDbEntity
  8
0
100
AcDbLine
 62
     2
  6
CONTINUOUS
 10
759.285893639089
 20
141.673839971423
 11
759.915893639089
 21
142.303839971423
  0
LINE
  5
407
100
AcDbEntity
  8
0
100
AcDbLine
 62
     2
  6
CONTINUOUS
 10
760.743809776069
 20
143.131756108403
 11
761.373809776069
 21
143.761756108403
  0
LINE
  5
408
100
AcDbEntity
  8
0
100
AcDbLine
 62
     2
  6
CONTINUOUS
 10
761.373809776069
 20
143.761756108403
 11
762.574398182109
 21
144.962344514443
  0
LINE
  5
409
100
AcDbEntity
  8
0
100
AcDbLine
 62
     2
  6
CONTINUOUS
 10
759.419536820733
 20
141.673839971423
 11
760.049536820733
 21
142.303839971423
  0
LINE
  5
40A
100
AcDbEntity
  8
0
100
AcDbLine
 62
     2
  6
CONTINUOUS
 10
760.877452957714
 20
143.131756108403
 11
762.574398182109
 21
144.828701332799
  0
LINE
  5
40B
100
AcDbEntity
  8
0
100
AcDbLine
 62
     2
  6
CONTINUOUS
 10
759.553180002378
 20
141.673839971423
 11
760.183180002378
 21
142.303839971423
  0
LINE
  5
40C
100
AcDbEntity
  8
0
100
AcDbLine
 62
     2
  6
CONTINUOUS
 10
760.999398182109
 20
143.120058151154
 11
761.011096139358
 21
143.131756108403
  0
LINE
  5
40D
100
AcDbEntity
  8
0
100
AcDbLine
 62
     2
  6
CONTINUOUS
 10
761.011096139358
 20
143.131756108403
 11
762.574398182109
 21
144.695058151154
  0
LINE
  5
40E
100
AcDbEntity
  8
0
100
AcDbLine
 62
     2
  6
CONTINUOUS
 10
759.686823184022
 20
141.673839971423
 11
760.316823184022
 21
142.303839971423
  0
LINE
  5
40F
100
AcDbEntity
  8
0
100
AcDbLine
 62
     2
  6
CONTINUOUS
 10
760.999398182109
 20
142.986414969510
 11
761.144739321002
 21
143.131756108403
  0
LINE
  5
410
100
AcDbEntity
  8
0
100
AcDbLine
 62
     2
  6
CONTINUOUS
 10
761.144739321002
 20
143.131756108403
 11
762.574398182109
 21
144.561414969510
  0
LINE
  5
411
100
AcDbEntity
  8
0
100
AcDbLine
 62
     2
  6
CONTINUOUS
 10
759.820466365666
 20
141.673839971423
 11
760.450466365666
 21
142.303839971423
  0
LINE
  5
412
100
AcDbEntity
  8
0
100
AcDbLine
 62
     2
  6
CONTINUOUS
 10
760.999398182109
 20
142.852771787866
 11
761.278382502646
 21
143.131756108403
  0
LINE
  5
413
100
AcDbEntity
  8
0
100
AcDbLine
 62
     2
  6
CONTINUOUS
 10
761.278382502646
 20
143.131756108403
 11
762.574398182109
 21
144.427771787866
  0
LINE
  5
414
100
AcDbEntity
  8
0
100
AcDbLine
 62
     2
  6
CONTINUOUS
 10
759.954109547311
 20
141.673839971423
 11
760.584109547311
 21
142.303839971423
  0
LINE
  5
415
100
AcDbEntity
  8
0
100
AcDbLine
 62
     2
  6
CONTINUOUS
 10
760.999398182109
 20
142.719128606222
 11
761.412025684291
 21
143.131756108403
  0
LINE
  5
416
100
AcDbEntity
  8
0
100
AcDbLine
 62
     2
  6
CONTINUOUS
 10
761.412025684291
 20
143.131756108403
 11
762.574398182109
 21
144.294128606222
  0
LINE
  5
417
100
AcDbEntity
  8
0
100
AcDbLine
 62
     2
  6
CONTINUOUS
 10
760.087752728955
 20
141.673839971423
 11
760.717752728955
 21
142.303839971423
  0
LINE
  5
418
100
AcDbEntity
  8
0
100
AcDbLine
 62
     2
  6
CONTINUOUS
 10
760.999398182109
 20
142.585485424577
 11
762.574398182109
 21
144.160485424577
  0
LINE
  5
419
100
AcDbEntity
  8
0
100
AcDbLine
 62
     2
  6
CONTINUOUS
 10
760.221395910599
 20
141.673839971423
 11
760.851395910599
 21
142.303839971423
  0
LINE
  5
41A
100
AcDbEntity
  8
0
100
AcDbLine
 62
     2
  6
CONTINUOUS
 10
760.999398182109
 20
142.451842242933
 11
762.574398182109
 21
144.026842242933
  0
LINE
  5
41B
100
AcDbEntity
  8
0
100
AcDbLine
 62
     2
  6
CONTINUOUS
 10
760.355039092243
 20
141.673839971423
 11
760.985039092243
 21
142.303839971423
  0
LINE
  5
41C
100
AcDbEntity
  8
0
100
AcDbLine
 62
     2
  6
CONTINUOUS
 10
760.999398182109
 20
142.318199061289
 11
762.574398182109
 21
143.893199061289
  0
LINE
  5
41D
100
AcDbEntity
  8
0
100
AcDbLine
 62
     2
  6
CONTINUOUS
 10
760.488682273888
 20
141.673839971423
 11
760.999398182109
 21
142.184555879644
  0
LINE
  5
41E
100
AcDbEntity
  8
0
100
AcDbLine
 62
     2
  6
CONTINUOUS
 10
760.999398182109
 20
142.184555879644
 11
761.118682273888
 21
142.303839971423
  0
LINE
  5
41F
100
AcDbEntity
  8
0
100
AcDbLine
 62
     2
  6
CONTINUOUS
 10
761.118682273888
 20
142.303839971423
 11
762.574398182109
 21
143.759555879644
  0
LINE
  5
420
100
AcDbEntity
  8
0
100
AcDbLine
 62
     2
  6
CONTINUOUS
 10
760.622325455532
 20
141.673839971423
 11
761.252325455532
 21
142.303839971423
  0
LINE
  5
421
100
AcDbEntity
  8
0
100
AcDbLine
 62
     2
  6
CONTINUOUS
 10
761.252325455532
 20
142.303839971423
 11
762.141688994080
 21
143.193203509971
  0
LINE
  5
422
100
AcDbEntity
  8
0
100
AcDbLine
 62
     2
  6
CONTINUOUS
 10
762.141688994080
 20
143.193203509971
 11
762.574398182109
 21
143.625912698000
  0
LINE
  5
423
100
AcDbEntity
  8
0
100
AcDbLine
 62
     2
  6
CONTINUOUS
 10
760.755968637176
 20
141.673839971423
 11
762.275332175725
 21
143.193203509971
  0
LINE
  5
424
100
AcDbEntity
  8
0
100
AcDbLine
 62
     2
  6
CONTINUOUS
 10
762.275332175725
 20
143.193203509971
 11
762.574398182109
 21
143.492269516356
  0
LINE
  5
425
100
AcDbEntity
  8
0
100
AcDbLine
 62
     2
  6
CONTINUOUS
 10
760.889611818820
 20
141.673839971423
 11
762.408975357369
 21
143.193203509971
  0
LINE
  5
426
100
AcDbEntity
  8
0
100
AcDbLine
 62
     2
  6
CONTINUOUS
 10
762.408975357369
 20
143.193203509971
 11
762.574398182109
 21
143.358626334712
  0
LINE
  5
427
100
AcDbEntity
  8
0
100
AcDbLine
 62
     2
  6
CONTINUOUS
 10
761.023255000465
 20
141.673839971423
 11
762.542618539013
 21
143.193203509971
  0
LINE
  5
428
100
AcDbEntity
  8
0
100
AcDbLine
 62
     2
  6
CONTINUOUS
 10
762.542618539013
 20
143.193203509971
 11
762.574398182109
 21
143.224983153067
  0
LINE
  5
429
100
AcDbEntity
  8
0
100
AcDbLine
 62
     2
  6
CONTINUOUS
 10
761.156898182109
 20
141.673839971423
 11
762.574398182109
 21
143.091339971423
  0
LINE
  5
42A
100
AcDbEntity
  8
0
100
AcDbLine
 62
     2
  6
CONTINUOUS
 10
772.002859235198
 20
143.743432966858
 11
771.633982535963
 21
142.766932966858
  0
LINE
  5
42B
100
AcDbEntity
  8
0
100
AcDbLine
 62
     2
  6
CONTINUOUS
 10
773.641465004429
 20
144.404932966858
 11
773.022704089582
 21
142.766932966858
  0
LINE
  5
42C
100
AcDbEntity
  8
0
100
AcDbLine
 62
     2
  6
CONTINUOUS
 10
768.092526729020
 20
144.971932966858
 11
765.895730500488
 21
143.234931297786
  0
LINE
  5
42D
100
AcDbEntity
  8
0
100
AcDbLine
 62
     2
  6
CONTINUOUS
 10
763.518967599232
 20
143.234931297786
 11
765.895730500488
 21
143.234931297786
  0
LINE
  5
42E
100
AcDbEntity
  8
0
100
AcDbLine
 62
     2
  6
CONTINUOUS
 10
760.999398182109
 20
144.457024685953
 11
761.010306463014
 21
144.467932966858
  0
LINE
  5
42F
100
AcDbEntity
  8
0
100
AcDbLine
 62
     2
  6
CONTINUOUS
 10
760.999398182109
 20
143.744261050517
 11
761.016893239995
 21
143.761756108403
  0
LINE
  5
430
100
AcDbEntity
  8
0
100
AcDbLine
 62
     2
  6
CONTINUOUS
 10
762.564456459188
 20
143.081932966858
 11
762.574398182109
 21
143.091874689780
  0
LINE
  5
431
100
AcDbEntity
  8
0
100
AcDbLine
 62
     2
  6
CONTINUOUS
 10
761.245458918182
 20
141.673839971423
 11
761.248416350852
 21
141.676797404093
  0
LINE
  5
432
100
AcDbEntity
  8
0
100
AcDbLine
 62
     2
  6
CONTINUOUS
 10
762.567463362808
 20
142.951296688835
 11
762.574398182109
 21
142.958231508135
  0
LINE
  5
433
100
AcDbEntity
  8
0
100
AcDbLine
 62
     2
  6
CONTINUOUS
 10
762.561536659015
 20
142.900822257827
 11
762.574398182109
 21
142.913683780921
  0
LINE
  5
434
100
AcDbEntity
  8
0
100
AcDbLine
 62
     2
  6
CONTINUOUS
 10
773.641465004429
 20
142.303839971423
 11
773.326465004429
 21
141.673839971423
  0
LINE
  5
435
100
AcDbEntity
  8
0
100
AcDbLine
 62
     2
  6
CONTINUOUS
 10
770.806465004429
 20
142.303839971423
 11
770.806465004429
 21
143.743432966858
  0
LINE
  5
436
100
AcDbEntity
  8
0
100
AcDbLine
 62
     2
  6
CONTINUOUS
 10
773.022704089582
 20
142.766932966858
 11
771.633982535963
 21
142.766932966858
  0
LINE
  5
437
100
AcDbEntity
  8
0
100
AcDbLine
 62
     2
  6
CONTINUOUS
 10
770.806465004429
 20
144.404932966858
 11
770.806465004429
 21
144.971932966858
  0
LINE
  5
438
100
AcDbEntity
  8
0
100
AcDbLine
 62
     2
  6
CONTINUOUS
 10
768.916465004429
 20
143.743432966858
 11
768.821965004429
 21
144.404932966858
  0
LINE
  5
439
100
AcDbEntity
  8
0
100
AcDbLine
 62
     2
  6
CONTINUOUS
 10
769.294465004429
 20
143.743432966858
 11
768.916465004429
 21
143.743432966858
  0
LINE
  5
43A
100
AcDbEntity
  8
0
100
AcDbLine
 62
     2
  6
CONTINUOUS
 10
772.002859235198
 20
143.743432966858
 11
770.806465004429
 21
143.743432966858
  0
LINE
  5
43B
100
AcDbEntity
  8
0
100
AcDbLine
 62
     2
  6
CONTINUOUS
 10
768.821965004429
 20
144.404932966858
 11
769.294465004429
 21
144.404932966858
  0
LINE
  5
43C
100
AcDbEntity
  8
0
100
AcDbLine
 62
     2
  6
CONTINUOUS
 10
773.641465004429
 20
144.404932966858
 11
770.806465004429
 21
144.404932966858
  0
LINE
  5
43D
100
AcDbEntity
  8
0
100
AcDbLine
 62
     2
  6
CONTINUOUS
 10
765.060219685571
 20
142.818391335014
 11
765.060219685571
 21
141.673839971423
  0
LINE
  5
43E
100
AcDbEntity
  8
0
100
AcDbLine
 62
     2
  6
CONTINUOUS
 10
763.518967599232
 20
143.234931297786
 11
765.690219685571
 21
144.971932966858
  0
LINE
  5
43F
100
AcDbEntity
  8
0
100
AcDbLine
 62
     2
  6
CONTINUOUS
 10
768.092526729020
 20
144.971932966858
 11
765.690219685571
 21
144.971932966858
  0
LINE
  5
440
100
AcDbEntity
  8
0
100
AcDbLine
 62
     2
  6
CONTINUOUS
 10
757.849398182109
 20
142.303839971423
 11
757.849398182109
 21
141.673839971423
  0
LINE
  5
441
100
AcDbEntity
  8
0
100
AcDbLine
 62
     2
  6
CONTINUOUS
 10
759.770091596338
 20
143.761756108403
 11
759.554405806042
 21
143.131756108403
  0
LINE
  5
442
100
AcDbEntity
  8
0
100
AcDbLine
 62
     2
  6
CONTINUOUS
 10
759.463899782457
 20
144.467932966858
 11
759.006448414694
 21
143.131756108403
  0
LINE
  5
443
100
AcDbEntity
  8
0
100
AcDbLine
 62
     2
  6
CONTINUOUS
 10
759.770091596338
 20
143.761756108403
 11
760.999398182109
 21
143.761756108403
  0
LINE
  5
444
100
AcDbEntity
  8
0
100
AcDbLine
 62
     2
  6
CONTINUOUS
 10
759.463899782457
 20
144.467932966858
 11
760.999398182109
 21
144.467932966858
  0
LINE
  5
445
100
AcDbEntity
  8
0
100
AcDbLine
 62
     2
  6
CONTINUOUS
 10
760.999398182109
 20
144.467932966858
 11
760.999398182109
 21
143.761756108403
  0
LINE
  5
446
100
AcDbEntity
  8
0
100
AcDbLine
 62
     2
  6
CONTINUOUS
 10
760.999398182109
 20
143.131756108403
 11
760.999398182109
 21
142.303839971423
  0
LINE
  5
447
100
AcDbEntity
  8
0
100
AcDbLine
 62
     2
  6
CONTINUOUS
 10
759.554405806042
 20
143.131756108403
 11
760.999398182109
 21
143.131756108403
  0
LINE
  5
448
100
AcDbEntity
  8
0
100
AcDbLine
 62
     2
  6
CONTINUOUS
 10
757.849398182109
 20
142.303839971423
 11
760.999398182109
 21
142.303839971423
  0
LINE
  5
449
100
AcDbEntity
  8
0
100
AcDbLine
 62
     2
  6
CONTINUOUS
 10
770.806465004429
 20
144.971932966858
 11
769.294465004429
 21
144.971932966858
  0
LINE
  5
44A
100
AcDbEntity
  8
0
100
AcDbLine
 62
     2
  6
CONTINUOUS
 10
774.309273348004
 20
143.534177936241
 11
774.309273348004
 21
142.773527280316
  0
LINE
  5
44B
100
AcDbEntity
  8
0
100
AcDbLine
 62
     2
  6
CONTINUOUS
 10
769.294465004429
 20
144.404932966858
 11
769.294465004429
 21
144.971932966858
  0
LINE
  5
44C
100
AcDbEntity
  8
0
100
AcDbLine
 62
     2
  6
CONTINUOUS
 10
766.143447707133
 20
142.818391335014
 11
765.060219685571
 21
142.818391335014
  0
LINE
  5
44D
100
AcDbEntity
  8
0
100
AcDbLine
 62
     2
  6
CONTINUOUS
 10
762.574398182109
 20
143.091339971423
 11
762.574398182109
 21
144.971932966858
  0
LINE
  5
44E
100
AcDbEntity
  8
0
100
AcDbLine
 62
     2
  6
CONTINUOUS
 10
759.006448414694
 20
143.131756108403
 11
757.534398182109
 21
143.131756108403
  0
LINE
  5
44F
100
AcDbEntity
  8
0
100
AcDbLine
 62
     2
  6
CONTINUOUS
 10
757.534398182109
 20
143.131756108403
 11
758.164398182109
 21
144.971932966858
  0
ARC
  5
450
100
AcDbEntity
  8
0
100
AcDbCircle
 62
     2
  6
CONTINUOUS
 10
761.156898182109
 20
143.091339971423
 40
1.417500000000
100
AcDbArc
 50
269.999999985475
 51
359.999999980633
  0
LINE
  5
451
100
AcDbEntity
  8
0
100
AcDbLine
 62
     2
  6
CONTINUOUS
 10
761.156898182109
 20
141.673839971423
 11
757.849398182109
 21
141.673839971423
  0
LINE
  5
452
100
AcDbEntity
  8
0
100
AcDbLine
 62
     2
  6
CONTINUOUS
 10
766.635219685571
 20
143.207234294709
 11
766.143447707133
 21
142.818391335014
  0
LINE
  5
453
100
AcDbEntity
  8
0
100
AcDbLine
 62
     2
  6
CONTINUOUS
 10
766.635219685571
 20
141.673839971423
 11
765.060219685571
 21
141.673839971423
  0
LINE
  5
454
100
AcDbEntity
  8
0
100
AcDbLine
 62
     2
  6
CONTINUOUS
 10
769.294465004429
 20
143.091339971423
 11
769.294465004429
 21
143.743432966858
  0
LINE
  5
455
100
AcDbEntity
  8
0
100
AcDbLine
 62
     2
  6
CONTINUOUS
 10
770.711965004429
 20
141.673839971423
 11
773.326465004429
 21
141.673839971423
  0
LINE
  5
456
100
AcDbEntity
  8
0
100
AcDbLine
 62
     2
  6
CONTINUOUS
 10
774.494469690977
 20
142.773527280316
 11
775.255120346902
 21
143.534177936241
  0
LINE
  5
457
100
AcDbEntity
  8
0
100
AcDbLine
 62
     2
  6
CONTINUOUS
 10
778.246773348004
 20
142.773527280316
 11
774.309273348004
 21
142.773527280316
  0
LINE
  5
458
100
AcDbEntity
  8
0
100
AcDbLine
 62
     2
  6
CONTINUOUS
 10
778.561773348004
 20
143.534177936241
 11
774.309273348004
 21
143.534177936241
  0
LINE
  5
459
100
AcDbEntity
  8
0
100
AcDbLine
 62
     2
  6
CONTINUOUS
 10
770.806465004429
 20
142.303839971423
 11
773.641465004429
 21
142.303839971423
  0
ARC
  5
45A
100
AcDbEntity
  8
0
100
AcDbCircle
 62
     2
  6
CONTINUOUS
 10
770.711965004429
 20
143.091339971423
 40
1.417500000000
100
AcDbArc
 50
179.999999990317
 51
269.999999985475
  0
LINE
  5
45B
100
AcDbEntity
  8
0
100
AcDbLine
 62
     2
  6
CONTINUOUS
 10
766.635219685571
 20
143.207234294709
 11
766.635219685571
 21
141.673839971423
  0
LINE
  5
45C
100
AcDbEntity
  8
0
100
AcDbLine
 62
     2
  6
CONTINUOUS
 10
758.164398182109
 20
144.971932966858
 11
762.574398182109
 21
144.971932966858
  0
TEXT
  5
45D
100
AcDbEntity
  8
0
100
AcDbText
 62
     0
  6
CONTINUOUS
 10
632.996503889561
 20
191.391357421875
 40
3.000000000000
 41
1.000000000000
 50
0.000000000000
  1
A
100
AcDbText
  0
TEXT
  5
45E
100
AcDbEntity
  8
0
100
AcDbText
 62
     0
  6
CONTINUOUS
 10
641.996503889561
 20
191.391357421875
 40
3.000000000000
 41
1.000000000000
 50
0.000000000000
  1
B
100
AcDbText
  0
TEXT
  5
45F
100
AcDbEntity
  8
0
100
AcDbText
 62
     0
  6
CONTINUOUS
 10
677.996503889561
 20
191.391357421875
 40
3.000000000000
 41
1.000000000000
 50
0.000000000000
  1
F
100
AcDbText
  0
TEXT
  5
460
100
AcDbEntity
  8
0
100
AcDbText
 62
     0
  6
CONTINUOUS
 10
668.996503889561
 20
191.391357421875
 40
3.000000000000
 41
1.000000000000
 50
0.000000000000
  1
E
100
AcDbText
  0
TEXT
  5
461
100
AcDbEntity
  8
0
100
AcDbText
 62
     0
  6
CONTINUOUS
 10
659.996503889561
 20
191.391357421875
 40
3.000000000000
 41
1.000000000000
 50
0.000000000000
  1
D
100
AcDbText
  0
TEXT
  5
462
100
AcDbEntity
  8
0
100
AcDbText
 62
     0
  6
CONTINUOUS
 10
645.449545741081
 20
167.724143981934
 40
2.000000000000
 41
0.750000000000
 50
0.000000000000
  1
1.5
100
AcDbText
  0
TEXT
  5
463
100
AcDbEntity
  8
0
100
AcDbText
 62
     0
  6
CONTINUOUS
 10
621.507293701172
 20
167.622947692871
 40
2.500000000000
 41
0.800000000000
 50
0.000000000000
  1
その他
100
AcDbText
  0
TEXT
  5
464
100
AcDbEntity
  8
0
100
AcDbText
 62
     0
  6
CONTINUOUS
 10
621.203849792480
 20
170.636123657227
 40
2.500000000000
 41
0.800000000000
 50
0.000000000000
  1
直角
100
AcDbText
  0
TEXT
  5
465
100
AcDbEntity
  8
0
100
AcDbText
 62
     0
  6
CONTINUOUS
 10
645.362833857536
 20
170.757774353027
 40
2.000000000000
 41
0.750000000000
 50
0.000000000000
  1
1.0
100
AcDbText
  0
TEXT
  5
466
100
AcDbEntity
  8
0
100
AcDbText
 62
     0
  6
CONTINUOUS
 10
668.455223083496
 20
167.903236389160
 40
2.000000000000
 41
0.750000000000
 50
0.000000000000
  1
3.0
100
AcDbText
  0
TEXT
  5
467
100
AcDbEntity
  8
0
100
AcDbText
 62
     0
  6
CONTINUOUS
 10
668.254486083984
 20
170.638381958008
 40
2.000000000000
 41
0.750000000000
 50
0.000000000000
  1
2.0
100
AcDbText
  0
TEXT
  5
468
100
AcDbEntity
  8
0
100
AcDbText
 62
     0
  6
CONTINUOUS
 10
630.326301574707
 20
173.959632873535
 40
2.000000000000
 41
0.750000000000
 50
0.000000000000
  1
0.25 0.4  0.6  0.8  1.5
100
AcDbText
  0
TEXT
  5
469
100
AcDbEntity
  8
0
100
AcDbText
 62
     0
  6
CONTINUOUS
 10
630.322805061936
 20
176.890151977539
 40
2.000000000000
 41
0.750000000000
 50
0.000000000000
  1
0.18 0.2  0.4  0.6  1.0
100
AcDbText
  0
TEXT
  5
46A
100
AcDbEntity
  8
0
100
AcDbText
 62
     0
  6
CONTINUOUS
 10
630.326301574707
 20
179.722984313965
 40
2.000000000000
 41
0.750000000000
 50
0.000000000000
  1
0.12 0.15 0.25 0.35 0.6
100
AcDbText
  0
TEXT
  5
46B
100
AcDbEntity
  8
0
100
AcDbText
 62
     0
  6
CONTINUOUS
 10
630.326301574707
 20
182.751182556152
 40
2.000000000000
 41
0.750000000000
 50
0.000000000000
  1
0.1  0.1  0.15 0.2  0.4
100
AcDbText
  0
TEXT
  5
46C
100
AcDbEntity
  8
0
100
AcDbText
 62
     0
  6
CONTINUOUS
 10
630.423984527588
 20
183.337287902832
 40
2.000000000000
 41
0.750000000000
 50
0.000000000000
  1

100
AcDbText
  0
TEXT
  5
46D
100
AcDbEntity
  8
0
100
AcDbText
 62
     0
  6
CONTINUOUS
 10
630.399999618530
 20
183.500000000000
 40
2.000000000000
 41
0.750000000000
 50
0.000000000000
  1

100
AcDbText
  0
TEXT
  5
46E
100
AcDbEntity
  8
0
100
AcDbText
 62
     0
  6
CONTINUOUS
 10
668.271654129028
 20
186.159634515643
 40
2.000000000000
 41
0.750000000000
 50
0.000000000000
  1
0.2
100
AcDbText
  0
TEXT
  5
46F
100
AcDbEntity
  8
0
100
AcDbText
 62
     0
  6
CONTINUOUS
 10
649.246639862657
 20
186.257317468524
 40
2.000000000000
 41
0.750000000000
 50
0.000000000000
  1
0.1
100
AcDbText
  0
TEXT
  5
470
100
AcDbEntity
  8
0
100
AcDbText
 62
     0
  6
CONTINUOUS
 10
649.255503177643
 20
189.198322296143
 40
2.000000000000
 41
0.750000000000
 50
0.000000000000
  1
0.05
100
AcDbText
  0
TEXT
  5
471
100
AcDbEntity
  8
0
100
AcDbText
 62
     0
  6
CONTINUOUS
 10
639.892081603408
 20
187.448429107666
 40
2.000000000000
 41
0.750000000000
 50
0.000000000000
  1
0.05
100
AcDbText
  0
TEXT
  5
472
100
AcDbEntity
  8
0
100
AcDbText
 62
     0
  6
CONTINUOUS
 10
630.326301574707
 20
187.440010070801
 40
2.000000000000
 41
0.750000000000
 50
0.000000000000
  1
0.05
100
AcDbText
  0
TEXT
  5
473
100
AcDbEntity
  8
0
100
AcDbText
 62
     0
  6
CONTINUOUS
 10
609.882827758789
 20
186.126556396484
 40
2.000000000000
 41
0.750000000000
 50
0.000000000000
  1
3を越え　６以下
100
AcDbText
  0
TEXT
  5
474
100
AcDbEntity
  8
0
100
AcDbText
 62
     0
  6
CONTINUOUS
 10
609.938484191895
 20
183.093151092529
 40
2.000000000000
 41
0.750000000000
 50
0.000000000000
  1
６を越え　３０以下
100
AcDbText
  0
TEXT
  5
475
100
AcDbEntity
  8
0
100
AcDbText
 62
     0
  6
CONTINUOUS
 10
609.230659484863
 20
173.976421356201
 40
2.000000000000
 41
0.750000000000
 50
0.000000000000
  1
315以上
100
AcDbText
  0
TEXT
  5
476
100
AcDbEntity
  8
0
100
AcDbText
 62
     0
  6
CONTINUOUS
 10
609.210659027100
 20
176.982002258301
 40
2.000000000000
 41
0.750000000000
 50
0.000000000000
  1
120を越え315以下
100
AcDbText
  0
TEXT
  5
477
100
AcDbEntity
  8
0
100
AcDbText
 62
     0
  6
CONTINUOUS
 10
609.210659027100
 20
174.582000732422
 40
2.000000000000
 41
0.750000000000
 50
0.000000000000
  1

100
AcDbText
  0
TEXT
  5
478
100
AcDbEntity
  8
0
100
AcDbText
 62
     0
  6
CONTINUOUS
 10
609.074489593506
 20
179.959751129150
 40
2.000000000000
 41
0.750000000000
 50
0.000000000000
  1
３０を越え１２０以下
100
AcDbText
  0
TEXT
  5
479
100
AcDbEntity
  8
0
100
AcDbText
 62
     0
  6
CONTINUOUS
 10
610.789886474609
 20
179.987579345703
 40
2.500000000000
 41
0.800000000000
 50
0.000000000000
  1

100
AcDbText
  0
TEXT
  5
47A
100
AcDbEntity
  8
0
100
AcDbText
 62
     0
  6
CONTINUOUS
 10
603.287799835205
 20
168.851066589355
 40
3.000000000000
 41
0.666666666667
 50
0.000000000000
  1
(%%p)
100
AcDbText
  0
TEXT
  5
47B
100
AcDbEntity
  8
0
100
AcDbText
 62
     0
  6
CONTINUOUS
 10
603.287799835205
 20
165.651069641113
 40
3.000000000000
 41
0.666666666667
 50
0.000000000000
  1

100
AcDbText
  0
TEXT
  5
47C
100
AcDbEntity
  8
0
100
AcDbText
 62
     0
  6
CONTINUOUS
 10
650.996503889561
 20
191.391357421875
 40
3.000000000000
 41
1.000000000000
 50
0.000000000000
  1
C
100
AcDbText
  0
TEXT
  5
47D
100
AcDbEntity
  8
0
100
AcDbText
 62
     0
  6
CONTINUOUS
 10
612.340587615967
 20
190.763591766357
 40
2.500000000000
 41
1.000000000000
 50
0.000000000000
  1

100
AcDbText
  0
TEXT
  5
47E
100
AcDbEntity
  8
0
100
AcDbText
 62
     0
  6
CONTINUOUS
 10
610.729892730713
 20
191.627124786377
 40
2.500000000000
 41
1.000000000000
 50
0.000000000000
  1
区分／等級
100
AcDbText
  0
TEXT
  5
47F
100
AcDbEntity
  8
0
100
AcDbText
 62
     0
  6
CONTINUOUS
 10
610.729892730713
 20
188.127124786377
 40
2.500000000000
 41
1.000000000000
 50
0.000000000000
  1

100
AcDbText
  0
TEXT
  5
480
100
AcDbEntity
  8
0
100
AcDbText
 62
     0
  6
CONTINUOUS
 10
604.968624114990
 20
190.493488311768
 40
3.000000000000
 41
1.000000000000
 50
0.000000000000
  1

100
AcDbText
  0
TEXT
  5
481
100
AcDbEntity
  8
0
100
AcDbText
 62
     0
  6
CONTINUOUS
 10
667.419338226318
 20
189.187832757831
 40
2.000000000000
 41
0.750000000000
 50
0.000000000000
  1
0.15
100
AcDbText
  0
TEXT
  5
482
100
AcDbEntity
  8
0
100
AcDbText
 62
     0
  6
CONTINUOUS
 10
658.770037382841
 20
187.484645843506
 40
2.000000000000
 41
0.750000000000
 50
0.000000000000
  1
0.1
100
AcDbText
  0
TEXT
  5
483
100
AcDbEntity
  8
0
100
AcDbText
 62
     0
  6
CONTINUOUS
 10
609.915554046631
 20
189.244789123535
 40
2.000000000000
 41
0.750000000000
 50
0.000000000000
  1
０を越え　３以下
100
AcDbText
  0
TEXT
  5
484
100
AcDbEntity
  8
0
100
AcDbText
 62
     0
  6
CONTINUOUS
 10
604.968624114990
 20
190.493488311768
 40
3.000000000000
 41
1.000000000000
 50
0.000000000000
  1
許
100
AcDbText
  0
TEXT
  5
485
100
AcDbEntity
  8
0
100
AcDbText
 62
     0
  6
CONTINUOUS
 10
604.968624114990
 20
186.493488311768
 40
3.000000000000
 41
1.000000000000
 50
0.000000000000
  1
容
100
AcDbText
  0
TEXT
  5
486
100
AcDbEntity
  8
0
100
AcDbText
 62
     0
  6
CONTINUOUS
 10
604.968624114990
 20
182.493488311768
 40
3.000000000000
 41
1.000000000000
 50
0.000000000000
  1
差
100
AcDbText
  0
TEXT
  5
487
100
AcDbEntity
  8
0
100
AcDbText
 62
     0
  6
CONTINUOUS
 10
604.968624114990
 20
178.493488311768
 40
3.000000000000
 41
1.000000000000
 50
0.000000000000
  1
区
100
AcDbText
  0
TEXT
  5
488
100
AcDbEntity
  8
0
100
AcDbText
 62
     0
  6
CONTINUOUS
 10
604.968624114990
 20
174.493488311768
 40
3.000000000000
 41
1.000000000000
 50
0.000000000000
  1
分
100
AcDbText
  0
TEXT
  5
489
100
AcDbEntity
  8
0
100
AcDbText
 62
     0
  6
CONTINUOUS
 10
604.968624114990
 20
170.493484497070
 40
3.000000000000
 41
1.000000000000
 50
0.000000000000
  1

100
AcDbText
  0
TEXT
  5
48A
100
AcDbEntity
  8
0
100
AcDbText
 62
     0
  6
CONTINUOUS
 10
609.309341430664
 20
168.590995788574
 40
3.000000000000
 41
1.000000000000
 50
0.000000000000
  1
角度
100
AcDbText
  0
TEXT
  5
48B
100
AcDbEntity
  8
0
100
AcDbText
 62
     0
  6
CONTINUOUS
 10
609.309341430664
 20
165.190994262695
 40
3.000000000000
 41
1.000000000000
 50
0.000000000000
  1

100
AcDbText
  0
TEXT
  5
48C
100
AcDbEntity
  8
0
100
AcDbText
 62
     0
  6
CONTINUOUS
 10
609.309341430664
 20
161.790992736816
 40
3.000000000000
 41
1.000000000000
 50
0.000000000000
  1

100
AcDbText
  0
TEXT
  5
48D
100
AcDbEntity
  8
0
100
AcDbText
 62
     0
  6
CONTINUOUS
 10
609.309341430664
 20
158.390991210938
 40
3.000000000000
 41
1.000000000000
 50
0.000000000000
  1

100
AcDbText
  0
TEXT
  5
48E
100
AcDbEntity
  8
0
100
AcDbText
 62
     0
  6
CONTINUOUS
 10
615.930019378662
 20
168.570930480957
 40
3.000000000000
 41
0.500000000000
 50
0.000000000000
  1
(度）
100
AcDbText
  0
TEXT
  5
48F
100
AcDbEntity
  8
0
100
AcDbText
 62
     0
  6
CONTINUOUS
 10
512.663543701172
 20
171.493225097656
 40
3.000000000000
 41
1.000000000000
 50
0.000000000000
  1
４
100
AcDbText
  0
TEXT
  5
490
100
AcDbEntity
  8
0
100
AcDbText
 62
     0
  6
CONTINUOUS
 10
512.663543701172
 20
189.493225097656
 40
3.000000000000
 41
1.000000000000
 50
0.000000000000
  1
７
100
AcDbText
  0
TEXT
  5
491
100
AcDbEntity
  8
0
100
AcDbText
 62
     0
  6
CONTINUOUS
 10
512.663543701172
 20
183.493225097656
 40
3.000000000000
 41
1.000000000000
 50
0.000000000000
  1
６
100
AcDbText
  0
TEXT
  5
492
100
AcDbEntity
  8
0
100
AcDbText
 62
     0
  6
CONTINUOUS
 10
512.663543701172
 20
177.493225097656
 40
3.000000000000
 41
1.000000000000
 50
0.000000000000
  1
５
100
AcDbText
  0
TEXT
  5
493
100
AcDbEntity
  8
0
100
AcDbText
 62
     0
  6
CONTINUOUS
 10
751.565915137529
 20
187.379509478807
 40
6.000000000000
 41
1.000000000000
 50
0.000000000000
  1
:
100
AcDbText
  0
TEXT
  5
494
100
AcDbEntity
  8
0
100
AcDbText
 62
     0
  6
CONTINUOUS
 10
691.289345473051
 20
173.190792694688
 40
3.000000000000
 41
1.000000000000
 50
0.000000000000
  1
Ｈ
100
AcDbText
  0
TEXT
  5
495
100
AcDbEntity
  8
0
100
AcDbText
 62
     0
  6
CONTINUOUS
 10
693.541688382626
 20
173.393151625991
 40
2.000000000000
 41
1.000000000000
 50
0.000000000000
  1
Ｒ
100
AcDbText
  0
TEXT
  5
496
100
AcDbEntity
  8
0
100
AcDbText
 62
     0
  6
CONTINUOUS
 10
695.081375941634
 20
173.190792694688
 40
3.000000000000
 41
1.000000000000
 50
0.000000000000
  1
Ｃ
100
AcDbText
  0
TEXT
  5
497
100
AcDbEntity
  8
0
100
AcDbText
 62
     0
  6
CONTINUOUS
 10
512.663543701172
 20
165.493225097656
 40
3.000000000000
 41
1.000000000000
 50
0.000000000000
  1
３
100
AcDbText
  0
TEXT
  5
498
100
AcDbEntity
  8
0
100
AcDbText
 62
     0
  6
CONTINUOUS
 10
512.663543701172
 20
159.493225097656
 40
3.000000000000
 41
1.000000000000
 50
0.000000000000
  1
２
100
AcDbText
  0
TEXT
  5
499
100
AcDbEntity
  8
0
100
AcDbText
 62
     0
  6
CONTINUOUS
 10
512.663543701172
 20
153.493225097656
 40
3.000000000000
 41
1.000000000000
 50
0.000000000000
  1
１
100
AcDbText
  0
TEXT
  5
49A
100
AcDbEntity
  8
0
100
AcDbText
 62
     0
  6
CONTINUOUS
 10
685.284211575985
 20
190.412036061287
 40
3.000000000000
 41
1.000000000000
 50
0.000000000000
  1
材質
100
AcDbText
  0
TEXT
  5
49B
100
AcDbEntity
  8
0
100
AcDbText
 62
     0
  6
CONTINUOUS
 10
680.784211575985
 20
190.412036061287
 40
3.000000000000
 41
1.000000000000
 50
0.000000000000
  1

100
AcDbText
  0
TEXT
  5
49C
100
AcDbEntity
  8
0
100
AcDbText
 62
     0
  6
CONTINUOUS
 10
684.488673895597
 20
180.998023152351
 40
3.000000000000
 41
1.000000000000
 50
0.000000000000
  1
表面
100
AcDbText
  0
TEXT
  5
49D
100
AcDbEntity
  8
0
100
AcDbText
 62
     0
  6
CONTINUOUS
 10
684.488673895597
 20
177.498023152351
 40
3.000000000000
 41
1.000000000000
 50
0.000000000000
  1

100
AcDbText
  0
TEXT
  5
49E
100
AcDbEntity
  8
0
100
AcDbText
 62
     0
  6
CONTINUOUS
 10
720.144805878401
 20
178.966659635305
 40
3.000000000000
 41
1.000000000000
 50
0.000000000000
  1
名
100
AcDbText
  0
TEXT
  5
49F
100
AcDbEntity
  8
0
100
AcDbText
 62
     0
  6
CONTINUOUS
 10
720.144805878401
 20
171.966659635305
 40
3.000000000000
 41
1.000000000000
 50
0.000000000000
  1
称
100
AcDbText
  0
TEXT
  5
4A0
100
AcDbEntity
  8
0
100
AcDbText
 62
     0
  6
CONTINUOUS
 10
720.144805878401
 20
164.966659635305
 40
3.000000000000
 41
1.000000000000
 50
0.000000000000
  1

100
AcDbText
  0
TEXT
  5
4A1
100
AcDbEntity
  8
0
100
AcDbText
 62
     0
  6
CONTINUOUS
 10
720.229400634766
 20
152.970214754343
 40
3.000000000000
 41
1.000000000000
 50
0.000000000000
  1
図
100
AcDbText
  0
TEXT
  5
4A2
100
AcDbEntity
  8
0
100
AcDbText
 62
     0
  6
CONTINUOUS
 10
720.229400634766
 20
146.970214754343
 40
3.000000000000
 41
1.000000000000
 50
0.000000000000
  1
番
100
AcDbText
  0
TEXT
  5
4A3
100
AcDbEntity
  8
0
100
AcDbText
 62
     0
  6
CONTINUOUS
 10
720.229400634766
 20
140.970214754343
 40
3.000000000000
 41
1.000000000000
 50
0.000000000000
  1

100
AcDbText
  0
TEXT
  5
4A4
100
AcDbEntity
  8
0
100
AcDbText
 62
     0
  6
CONTINUOUS
 10
720.171737670898
 20
165.064802452922
 40
3.000000000000
 41
1.000000000000
 50
0.000000000000
  1
品
100
AcDbText
  0
TEXT
  5
4A5
100
AcDbEntity
  8
0
100
AcDbText
 62
     0
  6
CONTINUOUS
 10
720.171737670898
 20
159.064802452922
 40
3.000000000000
 41
1.000000000000
 50
0.000000000000
  1
名
100
AcDbText
  0
TEXT
  5
4A6
100
AcDbEntity
  8
0
100
AcDbText
 62
     0
  6
CONTINUOUS
 10
720.171737670898
 20
153.064802452922
 40
3.000000000000
 41
1.000000000000
 50
0.000000000000
  1

100
AcDbText
  0
TEXT
  5
4A7
100
AcDbEntity
  8
0
100
AcDbText
 62
     0
  6
CONTINUOUS
 10
720.133714064956
 20
190.498939514160
 40
3.000000000000
 41
1.000000000000
 50
0.000000000000
  1
個
100
AcDbText
  0
TEXT
  5
4A8
100
AcDbEntity
  8
0
100
AcDbText
 62
     0
  6
CONTINUOUS
 10
720.133714064956
 20
185.498939514160
 40
3.000000000000
 41
1.000000000000
 50
0.000000000000
  1
数
100
AcDbText
  0
TEXT
  5
4A9
100
AcDbEntity
  8
0
100
AcDbText
 62
     0
  6
CONTINUOUS
 10
720.133714064956
 20
180.498939514160
 40
3.000000000000
 41
1.000000000000
 50
0.000000000000
  1

100
AcDbText
  0
TEXT
  5
4AA
100
AcDbEntity
  8
0
100
AcDbText
 62
     0
  6
CONTINUOUS
 10
739.735122680664
 20
190.686332702637
 40
3.000000000000
 41
1.000000000000
 50
0.000000000000
  1
尺
100
AcDbText
  0
TEXT
  5
4AB
100
AcDbEntity
  8
0
100
AcDbText
 62
     0
  6
CONTINUOUS
 10
739.735122680664
 20
185.686332702637
 40
3.000000000000
 41
1.000000000000
 50
0.000000000000
  1
度
100
AcDbText
  0
TEXT
  5
4AC
100
AcDbEntity
  8
0
100
AcDbText
 62
     0
  6
CONTINUOUS
 10
739.735122680664
 20
180.686332702637
 40
3.000000000000
 41
1.000000000000
 50
0.000000000000
  1

100
AcDbText
  0
TEXT
  5
4AD
100
AcDbEntity
  8
0
100
AcDbText
 62
     0
  6
CONTINUOUS
 10
685.259636402130
 20
161.650868088007
 40
3.000000000000
 41
1.000000000000
 50
0.000000000000
  1
備
100
AcDbText
  0
TEXT
  5
4AE
100
AcDbEntity
  8
0
100
AcDbText
 62
     0
  6
CONTINUOUS
 10
685.259636402130
 20
155.650868088007
 40
3.000000000000
 41
1.000000000000
 50
0.000000000000
  1
考
100
AcDbText
  0
TEXT
  5
4AF
100
AcDbEntity
  8
0
100
AcDbText
 62
     0
  6
CONTINUOUS
 10
685.259636402130
 20
149.650868088007
 40
3.000000000000
 41
1.000000000000
 50
0.000000000000
  1

100
AcDbText
  0
TEXT
  5
4B0
100
AcDbEntity
  8
0
100
AcDbText
 62
     0
  6
CONTINUOUS
 10
684.633117407560
 20
168.621661305428
 40
3.000000000000
 41
1.000000000000
 50
0.000000000000
  1
処理
100
AcDbText
  0
TEXT
  5
4B1
100
AcDbEntity
  8
0
100
AcDbText
 62
     0
  6
CONTINUOUS
 10
684.633117407560
 20
165.521662831306
 40
3.000000000000
 41
1.000000000000
 50
0.000000000000
  1

100
AcDbText
  0
TEXT
  5
4B2
100
AcDbEntity
  8
0
100
AcDbText
 62
     0
  6
CONTINUOUS
 10
686.174644201994
 20
172.625697255135
 40
3.000000000000
 41
1.000000000000
 50
0.000000000000
  1
熱
100
AcDbText
  0
TEXT
  5
4B3
100
AcDbEntity
  8
0
100
AcDbText
 62
     0
  6
CONTINUOUS
 10
684.453426092863
 20
177.198168873787
 40
3.000000000000
 41
1.000000000000
 50
0.000000000000
  1
処理
100
AcDbText
  0
TEXT
  5
4B4
100
AcDbEntity
  8
0
100
AcDbText
 62
     0
  6
CONTINUOUS
 10
684.453426092863
 20
173.698168873787
 40
3.000000000000
 41
1.000000000000
 50
0.000000000000
  1

100
AcDbText
  0
TEXT
  5
4B5
100
AcDbEntity
  8
0
100
AcDbText
 62
     0
  6
CONTINUOUS
 10
684.656787872314
 20
145.554771423340
 40
3.000000000000
 41
1.000000000000
 50
0.000000000000
  1
部署
100
AcDbText
  0
TEXT
  5
4B6
100
AcDbEntity
  8
0
100
AcDbText
 62
     0
  6
CONTINUOUS
 10
684.656787872314
 20
149.082763671875
 40
3.000000000000
 41
1.000000000000
 50
0.000000000000
  1
設計
100
AcDbText
  0
TEXT
  5
4B7
100
AcDbEntity
  8
0
100
AcDbText
 62
     0
  6
CONTINUOUS
 10
773.917060852051
 20
153.519004821777
 40
3.000000000000
 41
1.000000000000
 50
0.000000000000
  1
SUB.
100
AcDbText
  0
TEXT
  5
4B8
100
AcDbEntity
  8
0
100
AcDbText
 62
     0
  6
CONTINUOUS
 10
668.959788739681
 20
162.911598205566
 40
3.000000000000
 41
1.000000000000
 50
0.000000000000
  1
設計
100
AcDbText
  0
TEXT
  5
4B9
100
AcDbEntity
  8
0
100
AcDbText
 62
     0
  6
CONTINUOUS
 10
648.619508624077
 20
162.911598205566
 40
3.000000000000
 41
1.000000000000
 50
0.000000000000
  1
製図
100
AcDbText
  0
TEXT
  5
4BA
100
AcDbEntity
  8
0
100
AcDbText
 62
     0
  6
CONTINUOUS
 10
628.772548675537
 20
162.911598205566
 40
3.000000000000
 41
1.000000000000
 50
0.000000000000
  1
検図
100
AcDbText
  0
TEXT
  5
4BB
100
AcDbEntity
  8
0
100
AcDbText
 62
     0
  6
CONTINUOUS
 10
608.887296438217
 20
163.000205993652
 40
3.000000000000
 41
1.000000000000
 50
0.000000000000
  1
承認
100
AcDbText
  0
TEXT
  5
4BC
100
AcDbEntity
  8
0
100
AcDbText
 62
     0
  6
CONTINUOUS
 10
591.214339822531
 20
146.973579406738
 40
3.000000000000
 41
1.000000000000
 50
0.000000000000
  1
年月日
100
AcDbText
  0
TEXT
  5
4BD
100
AcDbEntity
  8
0
100
AcDbText
 62
     0
  6
CONTINUOUS
 10
580.656602077186
 20
146.973579406738
 40
3.000000000000
 41
1.000000000000
 50
0.000000000000
  1
確認
100
AcDbText
  0
TEXT
  5
4BE
100
AcDbEntity
  8
0
100
AcDbText
 62
     0
  6
CONTINUOUS
 10
570.626598335803
 20
147.127548217773
 40
3.000000000000
 41
1.000000000000
 50
0.000000000000
  1
担当
100
AcDbText
  0
TEXT
  5
4BF
100
AcDbEntity
  8
0
100
AcDbText
 62
     0
  6
CONTINUOUS
 10
530.288174919784
 20
146.973579406738
 40
3.000000000000
 41
1.000000000000
 50
0.000000000000
  1
訂正記事
100
AcDbText
  0
TEXT
  5
4C0
100
AcDbEntity
  8
0
100
AcDbText
 62
     0
  6
CONTINUOUS
 10
510.802845224738
 20
146.973579406738
 40
3.000000000000
 41
1.000000000000
 50
0.000000000000
  1
記号
100
AcDbText
  0
TEXT
  5
4C1
100
AcDbEntity
  8
0
100
AcDbText
 62
     0
  6
CONTINUOUS
 10
744.642778189108
 20
141.307472343743
 40
3.000000000000
 41
1.000000000000
 50
0.000000000000
  1
株式会社
100
AcDbText
  0
LINE
  5
4C2
100
AcDbEntity
  8
0
100
AcDbLine
 62
     3
  6
CONTINUOUS
 10
404.000000000000
 20
695.500000000000
 11
784.000000000000
 21
695.500000000000
  0
LINE
  5
4C3
100
AcDbEntity
  8
0
100
AcDbLine
 62
     3
  6
CONTINUOUS
 10
784.000000000000
 20
695.500000000000
 11
784.000000000000
 21
145.500000000000
  0
LINE
  5
4C4
100
AcDbEntity
  8
0
100
AcDbLine
 62
     3
  6
CONTINUOUS
 10
404.000000000000
 20
145.500000000000
 11
784.000000000000
 21
145.500000000000
  0
LINE
  5
4C5
100
AcDbEntity
  8
0
100
AcDbLine
 62
     3
  6
CONTINUOUS
 10
404.000000000000
 20
695.500000000000
 11
404.000000000000
 21
145.500000000000
  0
LINE
  5
4C6
100
AcDbEntity
  8
0
100
AcDbLine
 62
     3
  6
CONTINUOUS
 10
767.666666666667
 20
499.333333333333
 11
645.666666666667
 21
499.333333333333
  0
LINE
  5
4C7
100
AcDbEntity
  8
0
100
AcDbLine
 62
     3
  6
CONTINUOUS
 10
767.666666666667
 20
627.333333333333
 11
645.666666666667
 21
627.333333333333
  0
LINE
  5
4C8
100
AcDbEntity
  8
0
100
AcDbLine
 62
     3
  6
CONTINUOUS
 10
767.666666666667
 20
499.333333333333
 11
767.666666666667
 21
627.333333333333
  0
LINE
  5
4C9
100
AcDbEntity
  8
0
100
AcDbLine
 62
     3
  6
CONTINUOUS
 10
536.947916056910
 20
384.564196993907
 11
572.666666666667
 21
384.564196993907
  0
LINE
  5
4CA
100
AcDbEntity
  8
0
100
AcDbLine
 62
     0
  6
CENTER2
 48
10.0
 10
643.636666666667
 20
479.449972074099
 11
643.636666666667
 21
521.649362656840
  0
LINE
  5
4CB
100
AcDbEntity
  8
0
100
AcDbLine
 62
     3
  6
CONTINUOUS
 10
644.521666666196
 20
486.333333333334
 11
642.751666667226
 21
486.333333333334
  0
LINE
  5
4CC
100
AcDbEntity
  8
0
100
AcDbLine
 62
     3
  6
CONTINUOUS
 10
644.121666666667
 20
481.333333333334
 11
643.151666666667
 21
481.333333333334
  0
LINE
  5
4CD
100
AcDbEntity
  8
0
100
AcDbLine
 62
     3
  6
CONTINUOUS
 10
644.521666666055
 20
497.488824980341
 11
644.521666666667
 21
513.333333333334
  0
LINE
  5
4CE
100
AcDbEntity
  8
0
100
AcDbLine
 62
     3
  6
CONTINUOUS
 10
644.521666666196
 20
486.333333333334
 11
644.521666666055
 21
495.988824980341
  0
LINE
  5
4CF
100
AcDbEntity
  8
0
100
AcDbLine
 62
     3
  6
CONTINUOUS
 10
642.751666666314
 20
498.958651417099
 11
642.751666666667
 21
513.333333333334
  0
LINE
  5
4D0
100
AcDbEntity
  8
0
100
AcDbLine
 62
     3
  6
CONTINUOUS
 10
642.751666667226
 20
486.333333333334
 11
642.751666667419
 21
497.458651416250
  0
LINE
  5
4D1
100
AcDbEntity
  8
0
100
AcDbLine
 62
     3
  6
CONTINUOUS
 10
644.121666666667
 20
481.333333333334
 11
644.121666666667
 21
486.333333333334
  0
LINE
  5
4D2
100
AcDbEntity
  8
0
100
AcDbLine
 62
     3
  6
CONTINUOUS
 10
643.151666666667
 20
481.333333333334
 11
643.151666666667
 21
486.333333333334
  0
SPLINE
  5
4D3
100
AcDbEntity
  8
0
100
AcDbSpline
 62
     0
  6
CONTINUOUS
210
0.000000000000
220
0.000000000000
230
1.000000000000
 70
     8
 71
     3
 72
     0
 73
     0
 74
     3
 42
0.000000100000
 43
0.000000100000
 44
0.000000000000
 11
646.548041653980
 21
496.779244966557
 11
645.093477614174
 21
495.450781797611
 11
643.590066788668
 21
496.739419648044
  0
SPLINE
  5
4D4
100
AcDbEntity
  8
0
100
AcDbSpline
 62
     0
  6
CONTINUOUS
210
0.000000000000
220
0.000000000000
230
1.000000000000
 70
     8
 71
     3
 72
     0
 73
     0
 74
     3
 42
0.000000100000
 43
0.000000100000
 44
0.000000000000
 11
640.548041653980
 21
498.279244966557
 11
642.062792299266
 21
499.599648490168
 11
643.548041653980
 21
498.279244966557
  0
SPLINE
  5
4D5
100
AcDbEntity
  8
0
100
AcDbSpline
 62
     0
  6
CONTINUOUS
210
0.000000000000
220
0.000000000000
230
1.000000000000
 70
     8
 71
     3
 72
     0
 73
     0
 74
     3
 42
0.000000100000
 43
0.000000100000
 44
0.000000000000
 11
640.548041653980
 21
496.779244966557
 11
642.062792299266
 21
498.099648490168
 11
643.548041653980
 21
496.779244966557
  0
SPLINE
  5
4D6
100
AcDbEntity
  8
0
100
AcDbSpline
 62
     0
  6
CONTINUOUS
210
0.000000000000
220
0.000000000000
230
1.000000000000
 70
     8
 71
     3
 72
     0
 73
     0
 74
     3
 42
0.000000100000
 43
0.000000100000
 44
0.000000000000
 11
646.548041653980
 21
498.279244966557
 11
645.093477614174
 21
496.950781797611
 11
643.590066788668
 21
498.239419648044
  0
LINE
  5
4D7
100
AcDbEntity
  8
0
100
AcDbLine
 62
     3
  6
CONTINUOUS
 10
565.166666666667
 20
374.564196993907
 11
565.166666666667
 21
375.564196993907
  0
LINE
  5
4D8
100
AcDbEntity
  8
0
100
AcDbLine
 62
     3
  6
CONTINUOUS
 10
569.166666666667
 20
374.564196993907
 11
569.166666666667
 21
375.564196993907
  0
ARC
  5
4D9
100
AcDbEntity
  8
0
100
AcDbCircle
 62
     3
  6
CONTINUOUS
 10
567.166666666667
 20
375.564196993907
 40
2.000000000000
100
AcDbArc
 50
0.000000000000
 51
179.999999990317
  0
LINE
  5
4DA
100
AcDbEntity
  8
0
100
AcDbLine
 62
     0
  6
CENTER2
 48
10.0
 10
567.166666666667
 20
371.385430028041
 11
567.166666666667
 21
379.403641750415
  0
ARC
  5
4DB
100
AcDbEntity
  8
0
100
AcDbCircle
 62
     3
  6
CONTINUOUS
 10
504.166666666667
 20
375.564196993907
 40
2.000000000000
100
AcDbArc
 50
0.000000000000
 51
179.999999990317
  0
LINE
  5
4DC
100
AcDbEntity
  8
0
100
AcDbLine
 62
     3
  6
CONTINUOUS
 10
506.166666666667
 20
374.564196993907
 11
506.166666666667
 21
375.564196993907
  0
LINE
  5
4DD
100
AcDbEntity
  8
0
100
AcDbLine
 62
     3
  6
CONTINUOUS
 10
502.166666666667
 20
374.564196993907
 11
502.166666666667
 21
375.564196993907
  0
LINE
  5
4DE
100
AcDbEntity
  8
0
100
AcDbLine
 62
     0
  6
CENTER2
 48
10.0
 10
504.166666666667
 20
379.212731947502
 11
504.166666666667
 21
371.767249633869
  0
LINE
  5
4DF
100
AcDbEntity
  8
0
100
AcDbLine
 62
     0
  6
CENTER2
 48
10.0
 10
572.166666666667
 20
376.594196993907
 11
562.166666666667
 21
376.594196993907
  0
LINE
  5
4E0
100
AcDbEntity
  8
0
100
AcDbLine
 62
     0
  6
CENTER2
 48
10.0
 10
567.166666666667
 20
371.594196993907
 11
567.166666666667
 21
381.594196993907
  0
CIRCLE
  5
4E1
100
AcDbEntity
  8
0
100
AcDbCircle
 62
     3
  6
CONTINUOUS
 10
567.166666666667
 20
376.594196993907
 40
0.485000000000
  0
CIRCLE
  5
4E2
100
AcDbEntity
  8
0
100
AcDbCircle
 62
     3
  6
CONTINUOUS
 10
567.166666666667
 20
376.594196993907
 40
0.885000000000
  0
CIRCLE
  5
4E3
100
AcDbEntity
  8
0
100
AcDbCircle
 62
     3
  6
CONTINUOUS
 10
504.166666666667
 20
376.594196993907
 40
0.885000000000
  0
CIRCLE
  5
4E4
100
AcDbEntity
  8
0
100
AcDbCircle
 62
     3
  6
CONTINUOUS
 10
504.166666666667
 20
376.594196993907
 40
0.485000000000
  0
LINE
  5
4E5
100
AcDbEntity
  8
0
100
AcDbLine
 62
     0
  6
CENTER2
 48
10.0
 10
499.166666666667
 20
376.594196993907
 11
509.166666666667
 21
376.594196993907
  0
LINE
  5
4E6
100
AcDbEntity
  8
0
100
AcDbLine
 62
     0
  6
CENTER2
 48
10.0
 10
504.166666666667
 20
371.594196993907
 11
504.166666666667
 21
381.594196993907
  0
LINE
  5
4E7
100
AcDbEntity
  8
0
100
AcDbLine
 62
     0
  6
CENTER2
 48
10.0
 10
504.166666666667
 20
479.449972074099
 11
504.166666666667
 21
521.649362656840
  0
LINE
  5
4E8
100
AcDbEntity
  8
0
100
AcDbLine
 62
     3
  6
CONTINUOUS
 10
505.051666666196
 20
486.333333333334
 11
503.281666667226
 21
486.333333333334
  0
LINE
  5
4E9
100
AcDbEntity
  8
0
100
AcDbLine
 62
     3
  6
CONTINUOUS
 10
504.651666666667
 20
481.333333333334
 11
503.681666666667
 21
481.333333333334
  0
LINE
  5
4EA
100
AcDbEntity
  8
0
100
AcDbLine
 62
     3
  6
CONTINUOUS
 10
505.051666666055
 20
497.488824980341
 11
505.051666666667
 21
513.333333333334
  0
LINE
  5
4EB
100
AcDbEntity
  8
0
100
AcDbLine
 62
     3
  6
CONTINUOUS
 10
505.051666666196
 20
486.333333333334
 11
505.051666666055
 21
495.988824980341
  0
LINE
  5
4EC
100
AcDbEntity
  8
0
100
AcDbLine
 62
     3
  6
CONTINUOUS
 10
503.281666666314
 20
498.958651417099
 11
503.281666666667
 21
513.333333333334
  0
LINE
  5
4ED
100
AcDbEntity
  8
0
100
AcDbLine
 62
     3
  6
CONTINUOUS
 10
503.281666667226
 20
486.333333333334
 11
503.281666667420
 21
497.458651416250
  0
LINE
  5
4EE
100
AcDbEntity
  8
0
100
AcDbLine
 62
     3
  6
CONTINUOUS
 10
504.651666666667
 20
481.333333333334
 11
504.651666666667
 21
486.333333333334
  0
LINE
  5
4EF
100
AcDbEntity
  8
0
100
AcDbLine
 62
     3
  6
CONTINUOUS
 10
503.681666666667
 20
481.333333333334
 11
503.681666666667
 21
486.333333333334
  0
LINE
  5
4F0
100
AcDbEntity
  8
0
100
AcDbLine
 62
     0
  6
CENTER2
 48
10.0
 10
567.166666666667
 20
478.574077490338
 11
567.166666666667
 21
521.649362656840
  0
SPLINE
  5
4F1
100
AcDbEntity
  8
0
100
AcDbSpline
 62
     0
  6
CONTINUOUS
210
0.000000000000
220
0.000000000000
230
1.000000000000
 70
     8
 71
     3
 72
     0
 73
     0
 74
     3
 42
0.000000100000
 43
0.000000100000
 44
0.000000000000
 11
507.078041653980
 21
496.779244966557
 11
505.623477614174
 21
495.450781797611
 11
504.120066788669
 21
496.739419648044
  0
SPLINE
  5
4F2
100
AcDbEntity
  8
0
100
AcDbSpline
 62
     0
  6
CONTINUOUS
210
0.000000000000
220
0.000000000000
230
1.000000000000
 70
     8
 71
     3
 72
     0
 73
     0
 74
     3
 42
0.000000100000
 43
0.000000100000
 44
0.000000000000
 11
501.078041653980
 21
498.279244966557
 11
502.592792299266
 21
499.599648490168
 11
504.078041653980
 21
498.279244966557
  0
SPLINE
  5
4F3
100
AcDbEntity
  8
0
100
AcDbSpline
 62
     0
  6
CONTINUOUS
210
0.000000000000
220
0.000000000000
230
1.000000000000
 70
     8
 71
     3
 72
     0
 73
     0
 74
     3
 42
0.000000100000
 43
0.000000100000
 44
0.000000000000
 11
501.078041653980
 21
496.779244966557
 11
502.592792299266
 21
498.099648490168
 11
504.078041653980
 21
496.779244966557
  0
SPLINE
  5
4F4
100
AcDbEntity
  8
0
100
AcDbSpline
 62
     0
  6
CONTINUOUS
210
0.000000000000
220
0.000000000000
230
1.000000000000
 70
     8
 71
     3
 72
     0
 73
     0
 74
     3
 42
0.000000100000
 43
0.000000100000
 44
0.000000000000
 11
507.078041653980
 21
498.279244966557
 11
505.623477614174
 21
496.950781797611
 11
504.120066788669
 21
498.239419648044
  0
LINE
  5
4F5
100
AcDbEntity
  8
0
100
AcDbLine
 62
     3
  6
CONTINUOUS
 10
558.253646088730
 20
424.365581697750
 11
555.753646088730
 21
429.365581697750
  0
LINE
  5
4F6
100
AcDbEntity
  8
0
100
AcDbLine
 62
     3
  6
CONTINUOUS
 10
554.503646088730
 20
419.365581697750
 11
554.503646088730
 21
424.365581697750
  0
LINE
  5
4F7
100
AcDbEntity
  8
0
100
AcDbLine
 62
     3
  6
CONTINUOUS
 10
557.003646088730
 20
419.365581697750
 11
557.003646088730
 21
424.365581697750
  0
LINE
  5
4F8
100
AcDbEntity
  8
0
100
AcDbLine
 62
     3
  6
CONTINUOUS
 10
554.503646088730
 20
424.365581697750
 11
553.253646088730
 21
424.365581697750
  0
LINE
  5
4F9
100
AcDbEntity
  8
0
100
AcDbLine
 62
     3
  6
CONTINUOUS
 10
557.003646088730
 20
424.365581697750
 11
558.253646088730
 21
424.365581697750
  0
LINE
  5
4FA
100
AcDbEntity
  8
0
100
AcDbLine
 62
     3
  6
CONTINUOUS
 10
555.753646088730
 20
429.365581697750
 11
553.253646088730
 21
424.365581697750
  0
LINE
  5
4FB
100
AcDbEntity
  8
0
100
AcDbLine
 62
     3
  6
CONTINUOUS
 10
557.003646088730
 20
419.365581697750
 11
554.503646088730
 21
419.365581697750
  0
TEXT
  5
4FC
100
AcDbEntity
  8
0
100
AcDbText
 62
     0
  6
CONTINUOUS
 10
560.717276809940
 20
419.699706411886
 40
6.000000000000
 41
1.000000000000
 50
0.000000000000
  1
風向き
100
AcDbText
  0
LINE
  5
4FD
100
AcDbEntity
  8
0
100
AcDbLine
 62
     0
  6
CENTER2
 48
10.0
 10
535.666666666667
 20
238.794355034828
 11
535.666666666667
 21
632.491166402896
  0
ARC
  5
4FE
100
AcDbEntity
  8
0
100
AcDbCircle
 62
     2
  6
CONTINUOUS
 10
592.617354666667
 20
499.940128333333
 40
20.995245000000
100
AcDbArc
 50
205.445360988960
 51
210.658730988678
  0
ARC
  5
4FF
100
AcDbEntity
  8
0
100
AcDbCircle
 62
     2
  6
CONTINUOUS
 10
603.490866666667
 20
505.133524333333
 40
33.045324000000
100
AcDbArc
 50
202.201591989135
 51
205.476233988958
  0
ARC
  5
500
100
AcDbEntity
  8
0
100
AcDbCircle
 62
     2
  6
CONTINUOUS
 10
638.553310666667
 20
519.471531333333
 40
70.926100000000
100
AcDbArc
 50
200.758392989213
 51
202.222647989134
  0
ARC
  5
501
100
AcDbEntity
  8
0
100
AcDbCircle
 62
     2
  6
CONTINUOUS
 10
585.578040666667
 20
502.260878333333
 40
16.703640000000
100
AcDbArc
 50
267.557763985607
 51
275.092543985200
  0
ARC
  5
502
100
AcDbEntity
  8
0
100
AcDbCircle
 62
     2
  6
CONTINUOUS
 10
585.505015666667
 20
500.610393333333
 40
15.051542000000
100
AcDbArc
 50
258.911787986074
 51
267.567764985606
  0
ARC
  5
503
100
AcDbEntity
  8
0
100
AcDbCircle
 62
     2
  6
CONTINUOUS
 10
584.900166666667
 20
497.606512333333
 40
11.987424000000
100
AcDbArc
 50
248.134966986655
 51
258.987552986069
  0
ARC
  5
504
100
AcDbEntity
  8
0
100
AcDbCircle
 62
     2
  6
CONTINUOUS
 10
583.822885666667
 20
494.954493333333
 40
9.124986000000
100
AcDbArc
 50
234.204017987407
 51
248.211047986651
  0
ARC
  5
505
100
AcDbEntity
  8
0
100
AcDbCircle
 62
     2
  6
CONTINUOUS
 10
584.254472666667
 20
495.334686333333
 40
9.686640000000
100
AcDbArc
 50
220.984141988121
 51
233.448734987448
  0
ARC
  5
506
100
AcDbEntity
  8
0
100
AcDbCircle
 62
     2
  6
CONTINUOUS
 10
588.823991666667
 20
499.297332333333
 40
15.735032000000
100
AcDbArc
 50
213.157202988544
 51
220.963918988122
  0
ARC
  5
507
100
AcDbEntity
  8
0
100
AcDbCircle
 62
     2
  6
CONTINUOUS
 10
602.700514666667
 20
508.387009333333
 40
32.323580000000
100
AcDbArc
 50
209.384644988747
 51
213.192716988542
  0
ARC
  5
508
100
AcDbEntity
  8
0
100
AcDbCircle
 62
     2
  6
CONTINUOUS
 10
30471.881078666665
 20
17323.815456333337
 40
34309.525645000002
100
AcDbArc
 50
209.374714988748
 51
209.378176988748
  0
ARC
  5
509
100
AcDbEntity
  8
0
100
AcDbCircle
 62
     2
  6
CONTINUOUS
 10
585.886078666667
 20
499.291005333333
 40
12.773859000000
100
AcDbArc
 50
212.928451988556
 51
218.010526988282
  0
ARC
  5
50A
100
AcDbEntity
  8
0
100
AcDbCircle
 62
     2
  6
CONTINUOUS
 10
585.937507666667
 20
499.326619333333
 40
12.836385000000
100
AcDbArc
 50
207.898279988827
 51
212.937093988555
  0
ARC
  5
50B
100
AcDbEntity
  8
0
100
AcDbCircle
 62
     2
  6
CONTINUOUS
 10
585.769780666667
 20
499.240997333333
 40
12.648088000000
100
AcDbArc
 50
202.831118989101
 51
207.911002988827
  0
ARC
  5
50C
100
AcDbEntity
  8
0
100
AcDbCircle
 62
     2
  6
CONTINUOUS
 10
588.911290666667
 20
486.359011333333
 40
3.421328000000
100
AcDbArc
 50
225.805869987861
 51
235.288057987349
  0
ARC
  5
50D
100
AcDbEntity
  8
0
100
AcDbCircle
 62
     2
  6
CONTINUOUS
 10
587.605240666667
 20
485.059781333333
 40
1.579667000000
100
AcDbArc
 50
211.795234988617
 51
226.920618987801
  0
ARC
  5
50E
100
AcDbEntity
  8
0
100
AcDbCircle
 62
     2
  6
CONTINUOUS
 10
586.923897666667
 20
484.657635333333
 40
0.788871000000
100
AcDbArc
 50
190.426355989771
 51
213.043877988550
  0
ARC
  5
50F
100
AcDbEntity
  8
0
100
AcDbCircle
 62
     2
  6
CONTINUOUS
 10
586.717314666667
 20
484.620058333333
 40
0.578898000000
100
AcDbArc
 50
164.789261991155
 51
190.468862989768
  0
ARC
  5
510
100
AcDbEntity
  8
0
100
AcDbCircle
 62
     2
  6
CONTINUOUS
 10
586.872676666667
 20
484.567650333333
 40
0.742633000000
100
AcDbArc
 50
144.160104992268
 51
164.032427991196
  0
ARC
  5
511
100
AcDbEntity
  8
0
100
AcDbCircle
 62
     2
  6
CONTINUOUS
 10
587.324301666667
 20
484.232352333333
 40
1.305091000000
100
AcDbArc
 50
131.470016992954
 51
143.836326992286
  0
ARC
  5
512
100
AcDbEntity
  8
0
100
AcDbCircle
 62
     2
  6
CONTINUOUS
 10
588.097931666667
 20
483.353849333333
 40
2.475676000000
100
AcDbArc
 50
124.297047993341
 51
131.421714992956
  0
ARC
  5
513
100
AcDbEntity
  8
0
100
AcDbCircle
 62
     2
  6
CONTINUOUS
 10
589.564951666667
 20
481.207701333333
 40
5.075309000000
100
AcDbArc
 50
120.678288993536
 51
124.326704993339
  0
ARC
  5
514
100
AcDbEntity
  8
0
100
AcDbCircle
 62
     2
  6
CONTINUOUS
 10
597.325132666667
 20
468.141692333333
 40
20.272052000000
100
AcDbArc
 50
119.789496993584
 51
120.699792993535
  0
ARC
  5
515
100
AcDbEntity
  8
0
100
AcDbCircle
 62
     2
  6
CONTINUOUS
 10
583.025127666667
 20
493.143387333333
 40
8.530295000000
100
AcDbArc
 50
299.716542983871
 51
301.748738983761
  0
ARC
  5
516
100
AcDbEntity
  8
0
100
AcDbCircle
 62
     2
  6
CONTINUOUS
 10
586.310426666667
 20
487.862074333333
 40
2.310595000000
100
AcDbArc
 50
301.384270983781
 51
307.960028983426
  0
ARC
  5
517
100
AcDbEntity
  8
0
100
AcDbCircle
 62
     2
  6
CONTINUOUS
 10
587.270087666667
 20
486.657806333333
 40
0.770967000000
100
AcDbArc
 50
306.780104983489
 51
322.739674982628
  0
ARC
  5
518
100
AcDbEntity
  8
0
100
AcDbCircle
 62
     2
  6
CONTINUOUS
 10
587.662506666667
 20
486.369705333333
 40
0.284337000000
100
AcDbArc
 50
321.069485982718
 51
355.115483980880
  0
ARC
  5
519
100
AcDbEntity
  8
0
100
AcDbCircle
 62
     2
  6
CONTINUOUS
 10
587.669122666667
 20
486.346475333333
 40
0.276691000000
100
AcDbArc
 50
359.796819980627
 51
35.582102978695
  0
ARC
  5
51A
100
AcDbEntity
  8
0
100
AcDbCircle
 62
     2
  6
CONTINUOUS
 10
587.256226666667
 20
486.000521333333
 40
0.814829000000
100
AcDbArc
 50
38.473862997906
 51
56.596828996928
  0
ARC
  5
51B
100
AcDbEntity
  8
0
100
AcDbCircle
 62
     2
  6
CONTINUOUS
 10
586.298852666667
 20
484.482615333333
 40
2.609317000000
100
AcDbArc
 50
57.396466996884
 51
66.150363996412
  0
ARC
  5
51C
100
AcDbEntity
  8
0
100
AcDbCircle
 62
     2
  6
CONTINUOUS
 10
585.931601666667
 20
502.926405333333
 40
16.120151000000
100
AcDbArc
 50
267.341619985618
 51
275.061844985202
  0
ARC
  5
51D
100
AcDbEntity
  8
0
100
AcDbCircle
 62
     2
  6
CONTINUOUS
 10
585.883418666667
 20
501.935382333333
 40
15.127960000000
100
AcDbArc
 50
259.019836986068
 51
267.349822985618
  0
ARC
  5
51E
100
AcDbEntity
  8
0
100
AcDbCircle
 62
     2
  6
CONTINUOUS
 10
585.536846666667
 20
500.180782333333
 40
13.339471000000
100
AcDbArc
 50
249.608383986576
 51
259.045740986066
  0
ARC
  5
51F
100
AcDbEntity
  8
0
100
AcDbCircle
 62
     2
  6
CONTINUOUS
 10
584.879073666667
 20
498.419557333333
 40
11.459426000000
100
AcDbArc
 50
238.698465987165
 51
249.622781986575
  0
ARC
  5
520
100
AcDbEntity
  8
0
100
AcDbCircle
 62
     2
  6
CONTINUOUS
 10
584.814371666667
 20
498.216763333333
 40
11.252645000000
100
AcDbArc
 50
227.767615987755
 51
238.443490987178
  0
ARC
  5
521
100
AcDbEntity
  8
0
100
AcDbCircle
 62
     2
  6
CONTINUOUS
 10
585.520974666667
 20
498.995860333333
 40
12.304443000000
100
AcDbArc
 50
217.974620988284
 51
227.769828987755
  0
ARC
  5
522
100
AcDbEntity
  8
0
100
AcDbCircle
 62
     2
  6
CONTINUOUS
 10
586.149393666667
 20
506.715697333333
 40
23.183386000000
100
AcDbArc
 50
267.216318985625
 51
272.011201985366
  0
ARC
  5
523
100
AcDbEntity
  8
0
100
AcDbCircle
 62
     2
  6
CONTINUOUS
 10
586.015912666667
 20
503.807690333333
 40
20.272329000000
100
AcDbArc
 50
261.441773985937
 51
267.193979985626
  0
ARC
  5
524
100
AcDbEntity
  8
0
100
AcDbCircle
 62
     2
  6
CONTINUOUS
 10
585.414549666667
 20
499.856768333333
 40
16.275910000000
100
AcDbArc
 50
254.205184986328
 51
261.465402985936
  0
ARC
  5
525
100
AcDbEntity
  8
0
100
AcDbCircle
 62
     2
  6
CONTINUOUS
 10
584.356619666667
 20
496.168423333333
 40
12.438874000000
100
AcDbArc
 50
244.868072986832
 51
254.269869986324
  0
ARC
  5
526
100
AcDbEntity
  8
0
100
AcDbCircle
 62
     2
  6
CONTINUOUS
 10
583.096421666667
 20
493.503657333333
 40
9.491169000000
100
AcDbArc
 50
232.828851987482
 51
244.923377986829
  0
ARC
  5
527
100
AcDbEntity
  8
0
100
AcDbCircle
 62
     2
  6
CONTINUOUS
 10
583.341475666667
 20
493.656657333333
 40
9.761687000000
100
AcDbArc
 50
219.567153988198
 51
232.225310987514
  0
ARC
  5
528
100
AcDbEntity
  8
0
100
AcDbCircle
 62
     2
  6
CONTINUOUS
 10
586.656059666667
 20
496.382284333333
 40
14.053008000000
100
AcDbArc
 50
210.574236988683
 51
219.525553988200
  0
ARC
  5
529
100
AcDbEntity
  8
0
100
AcDbCircle
 62
     2
  6
CONTINUOUS
 10
580.634812666667
 20
469.833333333333
 40
4.000000000000
100
AcDbArc
 50
179.999999990334
 51
269.999999985475
  0
ARC
  5
52A
100
AcDbEntity
  8
0
100
AcDbCircle
 62
     2
  6
CONTINUOUS
 10
578.634812666667
 20
482.297435333333
 40
2.000000000000
100
AcDbArc
 50
149.999999991953
 51
179.999999990334
  0
ARC
  5
52B
100
AcDbEntity
  8
0
100
AcDbCircle
 62
     2
  6
CONTINUOUS
 10
492.698520666667
 20
482.297435333333
 40
2.000000000000
100
AcDbArc
 50
359.999999980616
 51
29.999999978997
  0
ARC
  5
52C
100
AcDbEntity
  8
0
100
AcDbCircle
 62
     2
  6
CONTINUOUS
 10
490.698520666667
 20
469.833333333333
 40
4.000000000000
100
AcDbArc
 50
269.999999985475
 51
359.999999980616
  0
ARC
  5
52D
100
AcDbEntity
  8
0
100
AcDbCircle
 62
     2
  6
CONTINUOUS
 10
535.666666666667
 20
522.670290333333
 40
39.836957000000
100
AcDbArc
 50
274.318859985242
 51
314.657312983064
  0
ARC
  5
52E
100
AcDbEntity
  8
0
100
AcDbCircle
 62
     2
  6
CONTINUOUS
 10
596.435026666667
 20
687.290953333333
 40
225.000000000000
100
AcDbArc
 50
255.122796986278
 51
259.819586986024
  0
ARC
  5
52F
100
AcDbEntity
  8
0
100
AcDbCircle
 62
     2
  6
CONTINUOUS
 10
535.666666666667
 20
522.670290333333
 40
39.836957000000
100
AcDbArc
 50
225.342686987886
 51
265.681139985708
  0
LINE
  5
530
100
AcDbEntity
  8
0
100
AcDbLine
 62
     2
  6
CONTINUOUS
 10
488.644065666667
 20
491.333333333333
 11
488.644065666667
 21
467.833333333333
  0
LINE
  5
531
100
AcDbEntity
  8
0
100
AcDbLine
 62
     2
  6
CONTINUOUS
 10
582.689267666667
 20
491.333333333333
 11
582.689267666667
 21
487.149173333333
  0
LINE
  5
532
100
AcDbEntity
  8
0
100
AcDbLine
 62
     2
  6
CONTINUOUS
 10
595.666666666667
 20
469.833333333333
 11
595.666666666667
 21
460.833333333333
  0
LINE
  5
533
100
AcDbEntity
  8
0
100
AcDbLine
 62
     2
  6
CONTINUOUS
 10
584.689267666667
 20
469.833333333333
 11
584.689267666667
 21
465.833333333333
  0
LINE
  5
534
100
AcDbEntity
  8
0
100
AcDbLine
 62
     2
  6
CONTINUOUS
 10
584.689267666667
 20
469.833333333333
 11
595.666666666667
 21
469.833333333333
  0
LINE
  5
535
100
AcDbEntity
  8
0
100
AcDbLine
 62
     2
  6
CONTINUOUS
 10
494.698520666667
 20
469.833333333333
 11
532.666666666667
 21
469.833333333333
  0
LINE
  5
536
100
AcDbEntity
  8
0
100
AcDbLine
 62
     2
  6
CONTINUOUS
 10
486.644065666667
 20
469.833333333333
 11
486.644065666667
 21
482.833333333333
  0
LINE
  5
537
100
AcDbEntity
  8
0
100
AcDbLine
 62
     2
  6
CONTINUOUS
 10
475.666666666667
 20
469.833333333333
 11
475.666666666667
 21
482.833333333333
  0
LINE
  5
538
100
AcDbEntity
  8
0
100
AcDbLine
 62
     2
  6
CONTINUOUS
 10
475.666666666667
 20
469.833333333333
 11
486.644065666667
 21
469.833333333333
  0
LINE
  5
539
100
AcDbEntity
  8
0
100
AcDbLine
 62
     2
  6
CONTINUOUS
 10
475.666666666667
 20
482.833333333333
 11
475.666666666667
 21
499.333333333333
  0
LINE
  5
53A
100
AcDbEntity
  8
0
100
AcDbLine
 62
     2
  6
CONTINUOUS
 10
486.644065666667
 20
482.833333333333
 11
486.644065666667
 21
494.333333333333
  0
LINE
  5
53B
100
AcDbEntity
  8
0
100
AcDbLine
 62
     2
  6
CONTINUOUS
 10
486.644065666667
 20
482.833333333333
 11
475.666666666667
 21
482.833333333333
  0
LINE
  5
53C
100
AcDbEntity
  8
0
100
AcDbLine
 62
     2
  6
CONTINUOUS
 10
595.666666666667
 20
482.833333333333
 11
595.666666666667
 21
469.833333333333
  0
LINE
  5
53D
100
AcDbEntity
  8
0
100
AcDbLine
 62
     2
  6
CONTINUOUS
 10
584.689267666667
 20
482.833333333333
 11
584.689267666667
 21
469.833333333333
  0
LINE
  5
53E
100
AcDbEntity
  8
0
100
AcDbLine
 62
     2
  6
CONTINUOUS
 10
584.689267666667
 20
482.833333333333
 11
595.666666666667
 21
482.833333333333
  0
LINE
  5
53F
100
AcDbEntity
  8
0
100
AcDbLine
 62
     2
  6
CONTINUOUS
 10
576.707946666667
 20
482.833333333333
 11
570.861310666667
 21
482.833333333333
  0
LINE
  5
540
100
AcDbEntity
  8
0
100
AcDbLine
 62
     2
  6
CONTINUOUS
 10
576.634812666667
 20
482.297435333333
 11
576.634812666667
 21
469.833333333333
  0
LINE
  5
541
100
AcDbEntity
  8
0
100
AcDbLine
 62
     2
  6
CONTINUOUS
 10
583.274340666667
 20
494.333333333333
 11
579.724392666667
 21
488.184642333333
  0
LINE
  5
542
100
AcDbEntity
  8
0
100
AcDbLine
 62
     2
  6
CONTINUOUS
 10
488.058992666667
 20
494.333333333333
 11
486.644065666667
 21
494.333333333333
  0
LINE
  5
543
100
AcDbEntity
  8
0
100
AcDbLine
 62
     2
  6
CONTINUOUS
 10
494.430570666667
 20
483.297435333333
 11
488.058992666667
 21
494.333333333333
  0
LINE
  5
544
100
AcDbEntity
  8
0
100
AcDbLine
 62
     2
  6
CONTINUOUS
 10
494.698520666667
 20
469.833333333333
 11
494.698520666667
 21
482.297435333333
  0
LINE
  5
545
100
AcDbEntity
  8
0
100
AcDbLine
 62
     2
  6
CONTINUOUS
 10
490.698520666667
 20
465.833333333333
 11
490.063029666667
 21
465.833333333333
  0
LINE
  5
546
100
AcDbEntity
  8
0
100
AcDbLine
 62
     2
  6
CONTINUOUS
 10
486.644065666667
 20
494.333333333333
 11
475.666666666667
 21
494.333333333333
  0
LINE
  5
547
100
AcDbEntity
  8
0
100
AcDbLine
 62
     2
  6
CONTINUOUS
 10
486.644065666667
 20
465.833333333333
 11
475.666666666667
 21
465.833333333333
  0
LINE
  5
548
100
AcDbEntity
  8
0
100
AcDbLine
 62
     2
  6
CONTINUOUS
 10
486.644065666667
 20
465.833333333333
 11
486.644065666667
 21
469.833333333333
  0
LINE
  5
549
100
AcDbEntity
  8
0
100
AcDbLine
 62
     2
  6
CONTINUOUS
 10
563.666666666667
 20
494.333333333333
 11
569.417934666667
 21
494.333333333333
  0
LINE
  5
54A
100
AcDbEntity
  8
0
100
AcDbLine
 62
     2
  6
CONTINUOUS
 10
507.666666666667
 20
494.333333333333
 11
488.058992666667
 21
494.333333333333
  0
LINE
  5
54B
100
AcDbEntity
  8
0
100
AcDbLine
 62
     2
  6
CONTINUOUS
 10
595.666666666667
 20
494.333333333333
 11
584.689267666667
 21
494.333333333333
  0
LINE
  5
54C
100
AcDbEntity
  8
0
100
AcDbLine
 62
     2
  6
CONTINUOUS
 10
475.666666666667
 20
460.833333333333
 11
475.666666666667
 21
469.833333333333
  0
LINE
  5
54D
100
AcDbEntity
  8
0
100
AcDbLine
 62
     2
  6
CONTINUOUS
 10
573.816666666667
 20
494.333333333333
 11
573.816666666667
 21
499.333333333333
  0
LINE
  5
54E
100
AcDbEntity
  8
0
100
AcDbLine
 62
     2
  6
CONTINUOUS
 10
595.666666666667
 20
499.333333333333
 11
595.666666666667
 21
482.833333333333
  0
LINE
  5
54F
100
AcDbEntity
  8
0
100
AcDbLine
 62
     0
  6
CENTER2
 48
10.0
 10
588.066666666667
 20
508.067374621828
 11
588.066666666667
 21
448.492907439669
  0
LINE
  5
550
100
AcDbEntity
  8
0
100
AcDbLine
 62
     0
  6
CENTER2
 48
10.0
 10
483.266666666667
 20
507.446807255348
 11
483.266666666667
 21
447.872340073188
  0
LINE
  5
551
100
AcDbEntity
  8
0
100
AcDbLine
 62
     2
  6
CONTINUOUS
 10
514.666666666667
 20
465.833333333333
 11
490.063029666667
 21
465.833333333333
  0
LINE
  5
552
100
AcDbEntity
  8
0
100
AcDbLine
 62
     2
  6
CONTINUOUS
 10
490.063029666667
 20
465.833333333333
 11
486.644065666667
 21
465.833333333333
  0
LINE
  5
553
100
AcDbEntity
  8
0
100
AcDbLine
 62
     2
  6
CONTINUOUS
 10
572.516666666667
 20
499.333333333333
 11
572.516666666667
 21
494.333333333333
  0
LINE
  5
554
100
AcDbEntity
  8
0
100
AcDbLine
 62
     2
  6
CONTINUOUS
 10
572.516666666667
 20
494.333333333333
 11
573.205900666667
 21
494.333333333333
  0
LINE
  5
555
100
AcDbEntity
  8
0
100
AcDbLine
 62
     2
  6
CONTINUOUS
 10
573.518557666667
 20
494.333333333333
 11
574.112637666667
 21
494.333333333333
  0
LINE
  5
556
100
AcDbEntity
  8
0
100
AcDbLine
 62
     2
  6
CONTINUOUS
 10
584.689267666667
 20
482.833333333333
 11
584.689267666667
 21
483.578966333333
  0
LINE
  5
557
100
AcDbEntity
  8
0
100
AcDbLine
 62
     2
  6
CONTINUOUS
 10
584.689267666667
 20
486.854801333333
 11
584.689267666667
 21
494.333333333333
  0
LINE
  5
558
100
AcDbEntity
  8
0
100
AcDbLine
 62
     2
  6
CONTINUOUS
 10
584.689267666667
 20
494.333333333333
 11
578.666666666667
 21
494.333333333333
  0
LINE
  5
559
100
AcDbEntity
  8
0
100
AcDbLine
 62
     2
  6
CONTINUOUS
 10
572.231499666667
 20
494.333333333333
 11
572.516666666667
 21
494.333333333333
  0
LINE
  5
55A
100
AcDbEntity
  8
0
100
AcDbLine
 62
     2
  6
CONTINUOUS
 10
578.126774666667
 20
485.417487333333
 11
576.902761666667
 21
483.297435333333
  0
LINE
  5
55B
100
AcDbEntity
  8
0
100
AcDbLine
 62
     2
  6
CONTINUOUS
 10
582.689267666667
 20
483.811100333333
 11
582.689267666667
 21
467.833333333333
  0
LINE
  5
55C
100
AcDbEntity
  8
0
100
AcDbLine
 62
     2
  6
CONTINUOUS
 10
575.821586666667
 20
491.424783333333
 11
577.500838666667
 21
494.333333333333
  0
LINE
  5
55D
100
AcDbEntity
  8
0
100
AcDbLine
 62
     2
  6
CONTINUOUS
 10
577.500838666667
 20
494.333333333333
 11
578.666666666667
 21
494.333333333333
  0
LINE
  5
55E
100
AcDbEntity
  8
0
100
AcDbLine
 62
     2
  6
CONTINUOUS
 10
574.556829666667
 20
489.234160333333
 11
570.861310666667
 21
482.833333333333
  0
LINE
  5
55F
100
AcDbEntity
  8
0
100
AcDbLine
 62
     2
  6
CONTINUOUS
 10
570.861310666667
 20
482.833333333333
 11
562.778406666667
 21
482.833333333333
  0
LINE
  5
560
100
AcDbEntity
  8
0
100
AcDbLine
 62
     2
  6
CONTINUOUS
 10
569.417934666667
 20
494.333333333333
 11
562.778406666667
 21
482.833333333333
  0
LINE
  5
561
100
AcDbEntity
  8
0
100
AcDbLine
 62
     2
  6
CONTINUOUS
 10
569.417934666667
 20
494.333333333333
 11
572.231499666667
 21
494.333333333333
  0
LINE
  5
562
100
AcDbEntity
  8
0
100
AcDbLine
 62
     2
  6
CONTINUOUS
 10
538.666666666667
 20
469.833333333333
 11
576.634812666667
 21
469.833333333333
  0
LINE
  5
563
100
AcDbEntity
  8
0
100
AcDbLine
 62
     2
  6
CONTINUOUS
 10
595.666666666667
 20
499.333333333333
 11
572.516666666667
 21
499.333333333333
  0
LINE
  5
564
100
AcDbEntity
  8
0
100
AcDbLine
 62
     2
  6
CONTINUOUS
 10
574.112637666667
 20
494.333333333333
 11
577.500838666667
 21
494.333333333333
  0
LINE
  5
565
100
AcDbEntity
  8
0
100
AcDbLine
 62
     2
  6
CONTINUOUS
 10
573.205900666667
 20
494.333333333333
 11
573.518557666667
 21
494.333333333333
  0
ARC
  5
566
100
AcDbEntity
  8
0
100
AcDbCircle
 62
     2
  6
CONTINUOUS
 10
474.898306666667
 20
687.290953333333
 40
225.000000000000
100
AcDbArc
 50
280.180412984925
 51
284.877202984672
  0
LINE
  5
567
100
AcDbEntity
  8
0
100
AcDbLine
 62
     2
  6
CONTINUOUS
 10
532.891435798767
 20
455.833333333333
 11
511.598037516565
 21
455.833333333333
  0
LINE
  5
568
100
AcDbEntity
  8
0
100
AcDbLine
 62
     2
  6
CONTINUOUS
 10
511.598037516565
 20
455.833333333333
 11
498.198037516565
 21
455.833333333333
  0
LINE
  5
569
100
AcDbEntity
  8
0
100
AcDbLine
 62
     2
  6
CONTINUOUS
 10
511.929408366464
 20
457.433333333333
 11
498.529408366464
 21
457.433333333333
  0
LINE
  5
56A
100
AcDbEntity
  8
0
100
AcDbLine
 62
     2
  6
CONTINUOUS
 10
510.329408366464
 20
459.033333333333
 11
496.929408366464
 21
459.033333333333
  0
LINE
  5
56B
100
AcDbEntity
  8
0
100
AcDbLine
 62
     2
  6
CONTINUOUS
 10
543.582028145677
 20
460.833333333333
 11
483.516666666667
 21
460.833333333333
  0
LINE
  5
56C
100
AcDbEntity
  8
0
100
AcDbLine
 62
     2
  6
CONTINUOUS
 10
579.835295816768
 20
460.833333333333
 11
591.116666666667
 21
460.833333333333
  0
LINE
  5
56D
100
AcDbEntity
  8
0
100
AcDbLine
 62
     2
  6
CONTINUOUS
 10
488.129408366464
 20
459.033333333333
 11
491.366666666667
 21
459.033333333333
  0
LINE
  5
56E
100
AcDbEntity
  8
0
100
AcDbLine
 62
     2
  6
CONTINUOUS
 10
489.729408366464
 20
457.433333333333
 11
492.966666666667
 21
457.433333333333
  0
LINE
  5
56F
100
AcDbEntity
  8
0
100
AcDbLine
 62
     2
  6
CONTINUOUS
 10
498.529408366464
 20
457.433333333333
 11
495.363722941515
 21
460.599018758283
  0
LINE
  5
570
100
AcDbEntity
  8
0
100
AcDbLine
 62
     2
  6
CONTINUOUS
 10
497.632352091616
 20
456.067647908384
 11
494.466666666667
 21
459.233333333333
  0
LINE
  5
571
100
AcDbEntity
  8
0
100
AcDbLine
 62
     2
  6
CONTINUOUS
 10
491.166666666667
 20
459.233333333333
 11
491.001327620399
 21
459.233333333333
  0
LINE
  5
572
100
AcDbEntity
  8
0
100
AcDbLine
 62
     2
  6
CONTINUOUS
 10
491.001327620399
 20
459.233333333333
 11
480.216666666667
 21
459.233333333333
  0
LINE
  5
573
100
AcDbEntity
  8
0
100
AcDbLine
 62
     2
  6
CONTINUOUS
 10
575.969610391819
 20
460.599018758283
 11
572.803924966870
 21
457.433333333333
  0
LINE
  5
574
100
AcDbEntity
  8
0
100
AcDbLine
 62
     2
  6
CONTINUOUS
 10
576.866666666667
 20
459.233333333333
 11
573.700981241717
 21
456.067647908384
  0
LINE
  5
575
100
AcDbEntity
  8
0
100
AcDbLine
 62
     2
  6
CONTINUOUS
 10
580.332005712934
 20
459.233333333333
 11
580.166666666667
 21
459.233333333333
  0
LINE
  5
576
100
AcDbEntity
  8
0
100
AcDbLine
 62
     2
  6
CONTINUOUS
 10
591.116666666667
 20
459.233333333333
 11
580.332005712934
 21
459.233333333333
  0
LINE
  5
577
100
AcDbEntity
  8
0
100
AcDbLine
 62
     2
  6
CONTINUOUS
 10
532.891435798767
 20
457.433333333333
 11
538.441897534566
 21
457.433333333333
  0
LINE
  5
578
100
AcDbEntity
  8
0
100
AcDbLine
 62
     2
  6
CONTINUOUS
 10
538.441897534566
 20
457.433333333333
 11
559.403924966870
 21
457.433333333333
  0
LINE
  5
579
100
AcDbEntity
  8
0
100
AcDbLine
 62
     2
  6
CONTINUOUS
 10
578.366666666667
 20
457.433333333333
 11
581.603924966870
 21
457.433333333333
  0
LINE
  5
57A
100
AcDbEntity
  8
0
100
AcDbLine
 62
     2
  6
CONTINUOUS
 10
579.966666666667
 20
459.033333333333
 11
583.203924966870
 21
459.033333333333
  0
LINE
  5
57B
100
AcDbEntity
  8
0
100
AcDbLine
 62
     2
  6
CONTINUOUS
 10
486.016666666667
 20
457.433333333333
 11
492.966666666667
 21
457.433333333333
  0
LINE
  5
57C
100
AcDbEntity
  8
0
100
AcDbLine
 62
     2
  6
CONTINUOUS
 10
486.166666666667
 20
459.033333333333
 11
491.366666666667
 21
459.033333333333
  0
LINE
  5
57D
100
AcDbEntity
  8
0
100
AcDbLine
 62
     2
  6
CONTINUOUS
 10
559.735295816768
 20
455.833333333333
 11
573.135295816768
 21
455.833333333333
  0
LINE
  5
57E
100
AcDbEntity
  8
0
100
AcDbLine
 62
     2
  6
CONTINUOUS
 10
559.403924966870
 20
457.433333333333
 11
572.803924966870
 21
457.433333333333
  0
LINE
  5
57F
100
AcDbEntity
  8
0
100
AcDbLine
 62
     2
  6
CONTINUOUS
 10
561.003924966870
 20
459.033333333333
 11
574.403924966870
 21
459.033333333333
  0
LINE
  5
580
100
AcDbEntity
  8
0
100
AcDbLine
 62
     2
  6
CONTINUOUS
 10
480.516666666667
 20
457.433333333333
 11
478.666666666667
 21
457.433333333333
  0
LINE
  5
581
100
AcDbEntity
  8
0
100
AcDbLine
 62
     2
  6
CONTINUOUS
 10
480.366666666667
 20
459.033333333333
 11
478.666666666667
 21
459.033333333333
  0
LINE
  5
582
100
AcDbEntity
  8
0
100
AcDbLine
 62
     2
  6
CONTINUOUS
 10
579.835295816768
 20
460.833333333333
 11
576.535295816768
 21
460.833333333333
  0
LINE
  5
583
100
AcDbEntity
  8
0
100
AcDbLine
 62
     2
  6
CONTINUOUS
 10
580.332005712934
 20
459.233333333333
 11
576.866666666667
 21
459.233333333333
  0
LINE
  5
584
100
AcDbEntity
  8
0
100
AcDbLine
 62
     2
  6
CONTINUOUS
 10
579.966666666667
 20
459.033333333333
 11
577.707319940116
 21
459.033333333333
  0
LINE
  5
585
100
AcDbEntity
  8
0
100
AcDbLine
 62
     2
  6
CONTINUOUS
 10
578.366666666667
 20
457.433333333333
 11
576.103924966870
 21
457.433333333333
  0
LINE
  5
586
100
AcDbEntity
  8
0
100
AcDbLine
 62
     2
  6
CONTINUOUS
 10
483.516666666667
 20
460.833333333333
 11
480.216666666667
 21
460.833333333333
  0
LINE
  5
587
100
AcDbEntity
  8
0
100
AcDbLine
 62
     2
  6
CONTINUOUS
 10
491.166666666667
 20
459.233333333333
 11
494.466666666667
 21
459.233333333333
  0
LINE
  5
588
100
AcDbEntity
  8
0
100
AcDbLine
 62
     2
  6
CONTINUOUS
 10
491.366666666667
 20
459.033333333333
 11
493.616758492047
 21
459.033333333333
  0
LINE
  5
589
100
AcDbEntity
  8
0
100
AcDbLine
 62
     2
  6
CONTINUOUS
 10
492.966666666667
 20
457.433333333333
 11
495.229408366464
 21
457.433333333333
  0
LINE
  5
58A
100
AcDbEntity
  8
0
100
AcDbLine
 62
     2
  6
CONTINUOUS
 10
496.266666666667
 20
457.433333333333
 11
495.229408366464
 21
457.433333333333
  0
LINE
  5
58B
100
AcDbEntity
  8
0
100
AcDbLine
 62
     2
  6
CONTINUOUS
 10
494.666666666667
 20
459.033333333333
 11
493.616758492047
 21
459.033333333333
  0
LINE
  5
58C
100
AcDbEntity
  8
0
100
AcDbLine
 62
     2
  6
CONTINUOUS
 10
575.066666666667
 20
457.433333333333
 11
576.103924966870
 21
457.433333333333
  0
LINE
  5
58D
100
AcDbEntity
  8
0
100
AcDbLine
 62
     2
  6
CONTINUOUS
 10
576.666666666667
 20
459.033333333333
 11
577.707319940116
 21
459.033333333333
  0
ARC
  5
58E
100
AcDbEntity
  8
0
100
AcDbCircle
 62
     2
  6
CONTINUOUS
 10
498.198037516565
 20
456.633333333333
 40
0.800000000000
100
AcDbArc
 50
224.999999987866
 51
269.999999985441
  0
ARC
  5
58F
100
AcDbEntity
  8
0
100
AcDbCircle
 62
     2
  6
CONTINUOUS
 10
494.798037516565
 20
460.033333333333
 40
0.800000000000
100
AcDbArc
 50
44.999999997520
 51
89.999999995158
  0
ARC
  5
590
100
AcDbEntity
  8
0
100
AcDbCircle
 62
     2
  6
CONTINUOUS
 10
480.216666666667
 20
460.033333333333
 40
0.800000000000
100
AcDbArc
 50
179.999999990300
 51
269.999999985441
  0
ARC
  5
591
100
AcDbEntity
  8
0
100
AcDbCircle
 62
     2
  6
CONTINUOUS
 10
480.216666666667
 20
460.033333333333
 40
0.800000000000
100
AcDbArc
 50
89.999999995158
 51
179.999999990300
  0
ARC
  5
592
100
AcDbEntity
  8
0
100
AcDbCircle
 62
     2
  6
CONTINUOUS
 10
573.135295816768
 20
456.633333333333
 40
0.800000000000
100
AcDbArc
 50
269.999999985441
 51
314.999999983013
  0
ARC
  5
593
100
AcDbEntity
  8
0
100
AcDbCircle
 62
     2
  6
CONTINUOUS
 10
576.535295816768
 20
460.033333333333
 40
0.800000000000
100
AcDbArc
 50
89.999999995158
 51
134.999999992730
  0
ARC
  5
594
100
AcDbEntity
  8
0
100
AcDbCircle
 62
     2
  6
CONTINUOUS
 10
591.116666666667
 20
460.033333333333
 40
0.800000000000
100
AcDbArc
 50
269.999999985441
 51
359.999999980582
  0
ARC
  5
595
100
AcDbEntity
  8
0
100
AcDbCircle
 62
     2
  6
CONTINUOUS
 10
591.116666666667
 20
460.033333333333
 40
0.800000000000
100
AcDbArc
 50
359.999999980582
 51
89.999999975792
  0
ARC
  5
596
100
AcDbEntity
  8
0
100
AcDbCircle
 62
     2
  6
CONTINUOUS
 10
532.891435798767
 20
456.633333333333
 40
0.800000000000
100
AcDbArc
 50
269.999999985441
 51
89.999999975792
  0
ARC
  5
597
100
AcDbEntity
  8
0
100
AcDbCircle
 62
     2
  6
CONTINUOUS
 10
592.666666666667
 20
458.233333333333
 40
0.800000000000
100
AcDbArc
 50
359.999999980582
 51
89.999999975792
  0
ARC
  5
598
100
AcDbEntity
  8
0
100
AcDbCircle
 62
     2
  6
CONTINUOUS
 10
592.666666666667
 20
458.233333333333
 40
0.800000000000
100
AcDbArc
 50
269.999999985441
 51
359.999999980582
  0
ARC
  5
599
100
AcDbEntity
  8
0
100
AcDbCircle
 62
     2
  6
CONTINUOUS
 10
478.666666666667
 20
458.233333333333
 40
0.800000000000
100
AcDbArc
 50
89.999999995158
 51
179.999999990300
  0
ARC
  5
59A
100
AcDbEntity
  8
0
100
AcDbCircle
 62
     2
  6
CONTINUOUS
 10
478.666666666667
 20
458.233333333333
 40
0.800000000000
100
AcDbArc
 50
179.999999990300
 51
269.999999985441
  0
LINE
  5
59B
100
AcDbEntity
  8
0
100
AcDbLine
 62
     2
  6
CONTINUOUS
 10
510.329408366464
 20
459.033333333333
 11
561.003924966870
 21
459.033333333333
  0
LINE
  5
59C
100
AcDbEntity
  8
0
100
AcDbLine
 62
     2
  6
CONTINUOUS
 10
511.929408366464
 20
457.433333333333
 11
532.891435798767
 21
457.433333333333
  0
ARC
  5
59D
100
AcDbEntity
  8
0
100
AcDbCircle
 62
     2
  6
CONTINUOUS
 10
538.441897534566
 20
456.633333333333
 40
0.800000000000
100
AcDbArc
 50
89.999999995158
 51
269.999999985441
  0
LINE
  5
59E
100
AcDbEntity
  8
0
100
AcDbLine
 62
     2
  6
CONTINUOUS
 10
538.441897534566
 20
455.833333333333
 11
559.735295816768
 21
455.833333333333
  0
LINE
  5
59F
100
AcDbEntity
  8
0
100
AcDbLine
 62
     2
  6
CONTINUOUS
 10
532.666666666667
 20
482.833333333333
 11
494.625386666667
 21
482.833333333333
  0
LINE
  5
5A0
100
AcDbEntity
  8
0
100
AcDbLine
 62
     2
  6
CONTINUOUS
 10
595.666666666667
 20
465.833333333333
 11
556.666666666667
 21
465.833333333333
  0
LINE
  5
5A1
100
AcDbEntity
  8
0
100
AcDbLine
 62
     2
  6
CONTINUOUS
 10
475.666666666667
 20
460.833333333333
 11
595.666666666667
 21
460.833333333333
  0
LINE
  5
5A2
100
AcDbEntity
  8
0
100
AcDbLine
 62
     2
  6
CONTINUOUS
 10
572.516666666667
 20
499.333333333333
 11
475.666666666667
 21
499.333333333333
  0
LINE
  5
5A3
100
AcDbEntity
  8
0
100
AcDbLine
 62
     2
  6
CONTINUOUS
 10
562.778406666667
 20
482.833333333333
 11
538.666666666667
 21
482.833333333333
  0
LINE
  5
5A4
100
AcDbEntity
  8
0
100
AcDbLine
 62
     2
  6
CONTINUOUS
 10
585.316666666667
 20
457.433333333333
 11
578.366666666667
 21
457.433333333333
  0
LINE
  5
5A5
100
AcDbEntity
  8
0
100
AcDbLine
 62
     2
  6
CONTINUOUS
 10
590.816666666667
 20
457.433333333333
 11
592.666666666667
 21
457.433333333333
  0
LINE
  5
5A6
100
AcDbEntity
  8
0
100
AcDbLine
 62
     2
  6
CONTINUOUS
 10
585.166666666667
 20
459.033333333333
 11
579.966666666667
 21
459.033333333333
  0
LINE
  5
5A7
100
AcDbEntity
  8
0
100
AcDbLine
 62
     2
  6
CONTINUOUS
 10
590.966666666667
 20
459.033333333333
 11
592.666666666667
 21
459.033333333333
  0
ARC
  5
5A8
100
AcDbEntity
  8
0
100
AcDbCircle
 62
     2
  6
CONTINUOUS
 10
750.634812666667
 20
469.833333333333
 40
4.000000000000
100
AcDbArc
 50
179.999999990334
 51
269.999999985475
  0
ARC
  5
5A9
100
AcDbEntity
  8
0
100
AcDbCircle
 62
     2
  6
CONTINUOUS
 10
748.634812666667
 20
482.297435333333
 40
2.000000000000
100
AcDbArc
 50
149.999999991953
 51
179.999999990334
  0
ARC
  5
5AA
100
AcDbEntity
  8
0
100
AcDbCircle
 62
     2
  6
CONTINUOUS
 10
662.698520666667
 20
482.297435333333
 40
2.000000000000
100
AcDbArc
 50
359.999999980616
 51
29.999999978997
  0
ARC
  5
5AB
100
AcDbEntity
  8
0
100
AcDbCircle
 62
     2
  6
CONTINUOUS
 10
660.698520666667
 20
469.833333333333
 40
4.000000000000
100
AcDbArc
 50
269.999999985475
 51
359.999999980616
  0
ARC
  5
5AC
100
AcDbEntity
  8
0
100
AcDbCircle
 62
     2
  6
CONTINUOUS
 10
705.666666666667
 20
522.670290333333
 40
39.836957000000
100
AcDbArc
 50
274.318859985242
 51
314.657312983064
  0
ARC
  5
5AD
100
AcDbEntity
  8
0
100
AcDbCircle
 62
     2
  6
CONTINUOUS
 10
766.435026666667
 20
687.290953333333
 40
225.000000000000
100
AcDbArc
 50
255.122796986278
 51
259.819586986024
  0
ARC
  5
5AE
100
AcDbEntity
  8
0
100
AcDbCircle
 62
     2
  6
CONTINUOUS
 10
705.666666666667
 20
522.670290333333
 40
39.836957000000
100
AcDbArc
 50
225.342686987886
 51
265.681139985708
  0
LINE
  5
5AF
100
AcDbEntity
  8
0
100
AcDbLine
 62
     2
  6
CONTINUOUS
 10
658.644065666667
 20
491.333333333333
 11
658.644065666667
 21
467.833333333333
  0
LINE
  5
5B0
100
AcDbEntity
  8
0
100
AcDbLine
 62
     2
  6
CONTINUOUS
 10
765.666666666667
 20
469.833333333333
 11
765.666666666667
 21
460.833333333333
  0
LINE
  5
5B1
100
AcDbEntity
  8
0
100
AcDbLine
 62
     2
  6
CONTINUOUS
 10
754.689267666667
 20
469.833333333333
 11
754.689267666667
 21
465.833333333333
  0
LINE
  5
5B2
100
AcDbEntity
  8
0
100
AcDbLine
 62
     2
  6
CONTINUOUS
 10
754.689267666667
 20
469.833333333333
 11
765.666666666667
 21
469.833333333333
  0
LINE
  5
5B3
100
AcDbEntity
  8
0
100
AcDbLine
 62
     2
  6
CONTINUOUS
 10
664.698520666667
 20
469.833333333333
 11
702.666666666667
 21
469.833333333333
  0
LINE
  5
5B4
100
AcDbEntity
  8
0
100
AcDbLine
 62
     2
  6
CONTINUOUS
 10
656.644065666667
 20
469.833333333333
 11
656.644065666667
 21
482.833333333333
  0
LINE
  5
5B5
100
AcDbEntity
  8
0
100
AcDbLine
 62
     2
  6
CONTINUOUS
 10
645.666666666667
 20
469.833333333333
 11
645.666666666667
 21
482.833333333333
  0
LINE
  5
5B6
100
AcDbEntity
  8
0
100
AcDbLine
 62
     2
  6
CONTINUOUS
 10
645.666666666667
 20
469.833333333333
 11
656.644065666667
 21
469.833333333333
  0
LINE
  5
5B7
100
AcDbEntity
  8
0
100
AcDbLine
 62
     2
  6
CONTINUOUS
 10
645.666666666667
 20
482.833333333333
 11
645.666666666667
 21
499.333333333333
  0
LINE
  5
5B8
100
AcDbEntity
  8
0
100
AcDbLine
 62
     2
  6
CONTINUOUS
 10
656.644065666667
 20
482.833333333333
 11
656.644065666667
 21
494.333333333333
  0
LINE
  5
5B9
100
AcDbEntity
  8
0
100
AcDbLine
 62
     2
  6
CONTINUOUS
 10
656.644065666667
 20
482.833333333333
 11
645.666666666667
 21
482.833333333333
  0
LINE
  5
5BA
100
AcDbEntity
  8
0
100
AcDbLine
 62
     2
  6
CONTINUOUS
 10
765.666666666667
 20
482.833333333333
 11
765.666666666667
 21
469.833333333333
  0
LINE
  5
5BB
100
AcDbEntity
  8
0
100
AcDbLine
 62
     2
  6
CONTINUOUS
 10
754.689267666667
 20
494.333333333333
 11
754.689267666667
 21
469.833333333333
  0
LINE
  5
5BC
100
AcDbEntity
  8
0
100
AcDbLine
 62
     2
  6
CONTINUOUS
 10
754.689267666667
 20
482.833333333333
 11
765.666666666667
 21
482.833333333333
  0
LINE
  5
5BD
100
AcDbEntity
  8
0
100
AcDbLine
 62
     2
  6
CONTINUOUS
 10
746.707946666667
 20
482.833333333333
 11
740.861310666667
 21
482.833333333333
  0
LINE
  5
5BE
100
AcDbEntity
  8
0
100
AcDbLine
 62
     2
  6
CONTINUOUS
 10
746.634812666667
 20
482.297435333333
 11
746.634812666667
 21
469.833333333333
  0
LINE
  5
5BF
100
AcDbEntity
  8
0
100
AcDbLine
 62
     2
  6
CONTINUOUS
 10
746.902761809818
 20
483.297435247977
 11
753.274340666667
 21
494.333333333333
  0
LINE
  5
5C0
100
AcDbEntity
  8
0
100
AcDbLine
 62
     2
  6
CONTINUOUS
 10
658.058992666667
 20
494.333333333333
 11
656.644065666667
 21
494.333333333333
  0
LINE
  5
5C1
100
AcDbEntity
  8
0
100
AcDbLine
 62
     2
  6
CONTINUOUS
 10
664.430570666667
 20
483.297435333333
 11
658.058992666667
 21
494.333333333333
  0
LINE
  5
5C2
100
AcDbEntity
  8
0
100
AcDbLine
 62
     2
  6
CONTINUOUS
 10
664.698520666667
 20
469.833333333333
 11
664.698520666667
 21
482.297435333333
  0
LINE
  5
5C3
100
AcDbEntity
  8
0
100
AcDbLine
 62
     2
  6
CONTINUOUS
 10
660.698520666667
 20
465.833333333333
 11
660.063029666667
 21
465.833333333333
  0
LINE
  5
5C4
100
AcDbEntity
  8
0
100
AcDbLine
 62
     2
  6
CONTINUOUS
 10
656.644065666667
 20
494.333333333333
 11
645.666666666667
 21
494.333333333333
  0
LINE
  5
5C5
100
AcDbEntity
  8
0
100
AcDbLine
 62
     2
  6
CONTINUOUS
 10
656.644065666667
 20
465.833333333333
 11
645.666666666667
 21
465.833333333333
  0
LINE
  5
5C6
100
AcDbEntity
  8
0
100
AcDbLine
 62
     2
  6
CONTINUOUS
 10
656.644065666667
 20
465.833333333333
 11
656.644065666667
 21
469.833333333333
  0
LINE
  5
5C7
100
AcDbEntity
  8
0
100
AcDbLine
 62
     2
  6
CONTINUOUS
 10
733.666666666667
 20
494.333333333333
 11
739.417934666667
 21
494.333333333333
  0
LINE
  5
5C8
100
AcDbEntity
  8
0
100
AcDbLine
 62
     2
  6
CONTINUOUS
 10
677.666666666667
 20
494.333333333333
 11
658.058992666667
 21
494.333333333333
  0
LINE
  5
5C9
100
AcDbEntity
  8
0
100
AcDbLine
 62
     2
  6
CONTINUOUS
 10
765.666666666667
 20
494.333333333333
 11
754.689267666667
 21
494.333333333333
  0
LINE
  5
5CA
100
AcDbEntity
  8
0
100
AcDbLine
 62
     2
  6
CONTINUOUS
 10
645.666666666667
 20
460.833333333333
 11
645.666666666667
 21
469.833333333333
  0
LINE
  5
5CB
100
AcDbEntity
  8
0
100
AcDbLine
 62
     2
  6
CONTINUOUS
 10
765.666666666667
 20
499.333333333333
 11
765.666666666667
 21
482.833333333333
  0
LINE
  5
5CC
100
AcDbEntity
  8
0
100
AcDbLine
 62
     0
  6
CENTER2
 48
10.0
 10
758.066666666667
 20
448.492907439669
 11
758.066666666667
 21
509.563005756513
  0
LINE
  5
5CD
100
AcDbEntity
  8
0
100
AcDbLine
 62
     0
  6
CENTER2
 48
10.0
 10
653.266666666667
 20
509.547875573238
 11
653.266666666667
 21
449.999370407239
  0
LINE
  5
5CE
100
AcDbEntity
  8
0
100
AcDbLine
 62
     2
  6
CONTINUOUS
 10
684.666666666667
 20
465.833333333333
 11
660.063029666667
 21
465.833333333333
  0
LINE
  5
5CF
100
AcDbEntity
  8
0
100
AcDbLine
 62
     2
  6
CONTINUOUS
 10
660.063029666667
 20
465.833333333333
 11
656.644065666667
 21
465.833333333333
  0
LINE
  5
5D0
100
AcDbEntity
  8
0
100
AcDbLine
 62
     2
  6
CONTINUOUS
 10
742.516666666667
 20
494.333333333333
 11
743.205900666667
 21
494.333333333333
  0
LINE
  5
5D1
100
AcDbEntity
  8
0
100
AcDbLine
 62
     2
  6
CONTINUOUS
 10
743.518557666667
 20
494.333333333333
 11
744.112637666667
 21
494.333333333333
  0
LINE
  5
5D2
100
AcDbEntity
  8
0
100
AcDbLine
 62
     2
  6
CONTINUOUS
 10
754.689267666667
 20
482.833333333333
 11
754.689267666667
 21
483.578966333333
  0
LINE
  5
5D3
100
AcDbEntity
  8
0
100
AcDbLine
 62
     2
  6
CONTINUOUS
 10
754.689267666667
 20
494.333333333333
 11
748.666666666667
 21
494.333333333333
  0
LINE
  5
5D4
100
AcDbEntity
  8
0
100
AcDbLine
 62
     2
  6
CONTINUOUS
 10
742.231499666667
 20
494.333333333333
 11
742.516666666667
 21
494.333333333333
  0
LINE
  5
5D5
100
AcDbEntity
  8
0
100
AcDbLine
 62
     2
  6
CONTINUOUS
 10
752.689267666667
 20
490.791279186805
 11
752.689267666667
 21
467.833333333333
  0
LINE
  5
5D6
100
AcDbEntity
  8
0
100
AcDbLine
 62
     2
  6
CONTINUOUS
 10
747.500838666667
 20
494.333333333333
 11
748.666666666667
 21
494.333333333333
  0
LINE
  5
5D7
100
AcDbEntity
  8
0
100
AcDbLine
 62
     2
  6
CONTINUOUS
 10
740.861310666667
 20
482.833333333333
 11
732.778406666667
 21
482.833333333333
  0
LINE
  5
5D8
100
AcDbEntity
  8
0
100
AcDbLine
 62
     2
  6
CONTINUOUS
 10
739.417934666667
 20
494.333333333333
 11
742.231499666667
 21
494.333333333333
  0
LINE
  5
5D9
100
AcDbEntity
  8
0
100
AcDbLine
 62
     2
  6
CONTINUOUS
 10
708.666666666667
 20
469.833333333333
 11
746.634812666667
 21
469.833333333333
  0
LINE
  5
5DA
100
AcDbEntity
  8
0
100
AcDbLine
 62
     2
  6
CONTINUOUS
 10
765.666666666667
 20
499.333333333333
 11
742.516666666667
 21
499.333333333333
  0
LINE
  5
5DB
100
AcDbEntity
  8
0
100
AcDbLine
 62
     2
  6
CONTINUOUS
 10
744.112637666667
 20
494.333333333333
 11
747.500838666667
 21
494.333333333333
  0
LINE
  5
5DC
100
AcDbEntity
  8
0
100
AcDbLine
 62
     2
  6
CONTINUOUS
 10
743.205900666667
 20
494.333333333333
 11
743.518557666667
 21
494.333333333333
  0
ARC
  5
5DD
100
AcDbEntity
  8
0
100
AcDbCircle
 62
     2
  6
CONTINUOUS
 10
644.898306666667
 20
687.290953333333
 40
225.000000000000
100
AcDbArc
 50
280.180412984925
 51
284.877202984672
  0
LINE
  5
5DE
100
AcDbEntity
  8
0
100
AcDbLine
 62
     2
  6
CONTINUOUS
 10
713.582028145678
 20
460.833333333333
 11
653.516666666667
 21
460.833333333333
  0
LINE
  5
5DF
100
AcDbEntity
  8
0
100
AcDbLine
 62
     2
  6
CONTINUOUS
 10
749.835295816768
 20
460.833333333333
 11
761.116666666667
 21
460.833333333333
  0
LINE
  5
5E0
100
AcDbEntity
  8
0
100
AcDbLine
 62
     2
  6
CONTINUOUS
 10
749.835295816768
 20
460.833333333333
 11
746.535295816768
 21
460.833333333333
  0
LINE
  5
5E1
100
AcDbEntity
  8
0
100
AcDbLine
 62
     2
  6
CONTINUOUS
 10
653.516666666667
 20
460.833333333333
 11
650.216666666667
 21
460.833333333333
  0
ARC
  5
5E2
100
AcDbEntity
  8
0
100
AcDbCircle
 62
     2
  6
CONTINUOUS
 10
664.798037516565
 20
460.033333333333
 40
0.800000000000
100
AcDbArc
 50
44.999999997520
 51
89.999999995158
  0
ARC
  5
5E3
100
AcDbEntity
  8
0
100
AcDbCircle
 62
     2
  6
CONTINUOUS
 10
746.535295816768
 20
460.033333333333
 40
0.800000000000
100
AcDbArc
 50
89.999999995158
 51
134.999999992730
  0
LINE
  5
5E4
100
AcDbEntity
  8
0
100
AcDbLine
 62
     2
  6
CONTINUOUS
 10
702.666666666667
 20
482.833333333333
 11
664.625386666667
 21
482.833333333333
  0
LINE
  5
5E5
100
AcDbEntity
  8
0
100
AcDbLine
 62
     2
  6
CONTINUOUS
 10
765.666666666667
 20
465.833333333333
 11
726.666666666667
 21
465.833333333333
  0
LINE
  5
5E6
100
AcDbEntity
  8
0
100
AcDbLine
 62
     2
  6
CONTINUOUS
 10
645.666666666667
 20
460.833333333333
 11
765.666666666667
 21
460.833333333333
  0
LINE
  5
5E7
100
AcDbEntity
  8
0
100
AcDbLine
 62
     2
  6
CONTINUOUS
 10
742.516666666667
 20
499.333333333333
 11
645.666666666667
 21
499.333333333333
  0
LINE
  5
5E8
100
AcDbEntity
  8
0
100
AcDbLine
 62
     2
  6
CONTINUOUS
 10
732.778406666667
 20
482.833333333333
 11
708.666666666667
 21
482.833333333333
  0
LINE
  5
5E9
100
AcDbEntity
  8
0
100
AcDbLine
 62
     0
  6
CENTER2
 48
10.0
 10
705.666666666667
 20
631.870598991712
 11
705.666666666667
 21
449.483311157454
  0
POINT
  5
5EA
100
AcDbEntity
  8
0
100
AcDbPoint
 62
     2
  6
CONTINUOUS
 10
588.066666666667
 20
262.164196993907
  0
POINT
  5
5EB
100
AcDbEntity
  8
0
100
AcDbPoint
 62
     2
  6
CONTINUOUS
 10
535.666666666667
 20
314.564196993907
  0
POINT
  5
5EC
100
AcDbEntity
  8
0
100
AcDbPoint
 62
     2
  6
CONTINUOUS
 10
483.266666666667
 20
262.164196993907
  0
POINT
  5
5ED
100
AcDbEntity
  8
0
100
AcDbPoint
 62
     2
  6
CONTINUOUS
 10
588.066666666667
 20
366.964196993907
  0
POINT
  5
5EE
100
AcDbEntity
  8
0
100
AcDbPoint
 62
     2
  6
CONTINUOUS
 10
483.266666666667
 20
366.964196993907
  0
LINE
  5
5EF
100
AcDbEntity
  8
0
100
AcDbLine
 62
     2
  6
CONTINUOUS
 10
588.066666666667
 20
260.716383074780
 11
588.066666666667
 21
261.027594880578
  0
ARC
  5
5F0
100
AcDbEntity
  8
0
100
AcDbCircle
 62
     2
  6
CONTINUOUS
 10
585.848655560320
 20
266.477308021011
 40
2.600000000000
100
AcDbArc
 50
228.999999987636
 51
267.357131423897
  0
ARC
  5
5F1
100
AcDbEntity
  8
0
100
AcDbCircle
 62
     2
  6
CONTINUOUS
 10
535.666666666667
 20
314.564196993907
 40
57.800000000000
100
AcDbArc
 50
226.927784906922
 51
313.072215063925
  0
ARC
  5
5F2
100
AcDbEntity
  8
0
100
AcDbCircle
 62
     2
  6
CONTINUOUS
 10
535.666666666667
 20
314.564196993907
 40
56.200000000000
100
AcDbArc
 50
227.097178438196
 51
312.902821532652
  0
ARC
  5
5F3
100
AcDbEntity
  8
0
100
AcDbCircle
 62
     2
  6
CONTINUOUS
 10
535.666666666667
 20
314.564196993907
 40
50.750000000000
100
AcDbArc
 50
227.754849819967
 51
312.245150150881
  0
ARC
  5
5F4
100
AcDbEntity
  8
0
100
AcDbCircle
 62
     2
  6
CONTINUOUS
 10
535.666666666667
 20
314.564196993907
 40
49.150000000000
100
AcDbArc
 50
227.975818686520
 51
312.024181284328
  0
ARC
  5
5F5
100
AcDbEntity
  8
0
100
AcDbCircle
 62
     2
  6
CONTINUOUS
 10
535.666666666667
 20
314.564196993907
 40
43.500000000000
100
AcDbArc
 50
228.887302436690
 51
311.112697534158
  0
ARC
  5
5F6
100
AcDbEntity
  8
0
100
AcDbCircle
 62
     2
  6
CONTINUOUS
 10
535.666666666667
 20
314.564196993907
 40
41.900000000000
100
AcDbArc
 50
229.190517809533
 51
310.809482161315
  0
ARC
  5
5F7
100
AcDbEntity
  8
0
100
AcDbCircle
 62
     2
  6
CONTINUOUS
 10
535.666666666667
 20
314.564196993907
 40
36.750000000000
100
AcDbArc
 50
230.347948825029
 51
309.652051145819
  0
ARC
  5
5F8
100
AcDbEntity
  8
0
100
AcDbCircle
 62
     2
  6
CONTINUOUS
 10
535.666666666667
 20
314.564196993907
 40
35.150000000000
100
AcDbArc
 50
230.777545312748
 51
309.222454658100
  0
ARC
  5
5F9
100
AcDbEntity
  8
0
100
AcDbCircle
 62
     2
  6
CONTINUOUS
 10
535.666666666667
 20
314.564196993907
 40
29.750000000000
100
AcDbArc
 50
232.574876243552
 51
307.425123727296
  0
ARC
  5
5FA
100
AcDbEntity
  8
0
100
AcDbCircle
 62
     2
  6
CONTINUOUS
 10
535.666666666667
 20
314.564196993907
 40
28.150000000000
100
AcDbArc
 50
233.242684083778
 51
306.757315887070
  0
LINE
  5
5FB
100
AcDbEntity
  8
0
100
AcDbLine
 62
     2
  6
CONTINUOUS
 10
548.513979038633
 20
295.486813399266
 11
552.512384044468
 21
292.011052955276
  0
LINE
  5
5FC
100
AcDbEntity
  8
0
100
AcDbLine
 62
     2
  6
CONTINUOUS
 10
545.234131899800
 20
298.337941019118
 11
547.260203389666
 21
296.576703943110
  0
ARC
  5
5FD
100
AcDbEntity
  8
0
100
AcDbCircle
 62
     2
  6
CONTINUOUS
 10
559.339401023096
 20
314.564196993907
 40
21.500000000000
100
AcDbArc
 50
221.136343014072
 51
228.999999987637
  0
ARC
  5
5FE
100
AcDbEntity
  8
0
100
AcDbCircle
 62
     2
  6
CONTINUOUS
 10
559.339401023096
 20
314.564196993907
 40
21.500000000000
100
AcDbArc
 50
216.781033147681
 51
221.136343014072
  0
ARC
  5
5FF
100
AcDbEntity
  8
0
100
AcDbCircle
 62
     2
  6
CONTINUOUS
 10
559.339401023096
 20
314.564196993907
 40
21.500000000000
100
AcDbArc
 50
200.987259961425
 51
216.781033147681
  0
ARC
  5
600
100
AcDbEntity
  8
0
100
AcDbCircle
 62
     2
  6
CONTINUOUS
 10
535.666666666667
 20
314.564196993907
 40
8.500000000000
100
AcDbArc
 50
244.949509469796
 51
295.050490501052
  0
ARC
  5
601
100
AcDbEntity
  8
0
100
AcDbCircle
 62
     2
  6
CONTINUOUS
 10
511.993932310237
 20
314.564196993907
 40
19.900000000000
100
AcDbArc
 50
344.703833620304
 51
15.296166340895
  0
ARC
  5
602
100
AcDbEntity
  8
0
100
AcDbCircle
 62
     2
  6
CONTINUOUS
 10
511.993932310237
 20
314.564196993907
 40
19.900000000000
100
AcDbArc
 50
339.788353212138
 51
344.703833620304
  0
ARC
  5
603
100
AcDbEntity
  8
0
100
AcDbCircle
 62
     2
  6
CONTINUOUS
 10
535.666666666667
 20
314.564196993907
 40
6.900000000000
100
AcDbArc
 50
130.461778296762
 51
229.538221683803
  0
ARC
  5
604
100
AcDbEntity
  8
0
100
AcDbCircle
 62
     2
  6
CONTINUOUS
 10
535.666666666667
 20
314.564196993907
 40
8.500000000000
100
AcDbArc
 50
126.016213380071
 51
233.983786600494
  0
ARC
  5
605
100
AcDbEntity
  8
0
100
AcDbCircle
 62
     2
  6
CONTINUOUS
 10
535.666666666667
 20
314.564196993907
 40
16.000000000000
100
AcDbArc
 50
123.707131506937
 51
236.292868473628
  0
ARC
  5
606
100
AcDbEntity
  8
0
100
AcDbCircle
 62
     2
  6
CONTINUOUS
 10
535.666666666667
 20
314.564196993907
 40
21.400000000000
100
AcDbArc
 50
127.218944865056
 51
232.781055115509
  0
ARC
  5
607
100
AcDbEntity
  8
0
100
AcDbCircle
 62
     2
  6
CONTINUOUS
 10
535.666666666667
 20
314.564196993907
 40
29.750000000000
100
AcDbArc
 50
130.554600482667
 51
229.445399497899
  0
ARC
  5
608
100
AcDbEntity
  8
0
100
AcDbCircle
 62
     2
  6
CONTINUOUS
 10
535.666666666667
 20
314.564196993907
 40
35.150000000000
100
AcDbArc
 50
131.859430150372
 51
228.140569830194
  0
ARC
  5
609
100
AcDbEntity
  8
0
100
AcDbCircle
 62
     2
  6
CONTINUOUS
 10
535.666666666667
 20
314.564196993907
 40
41.900000000000
100
AcDbArc
 50
133.014373397942
 51
226.985626582623
  0
ARC
  5
60A
100
AcDbEntity
  8
0
100
AcDbCircle
 62
     2
  6
CONTINUOUS
 10
535.666666666667
 20
314.564196993907
 40
50.750000000000
100
AcDbArc
 50
134.061042076350
 51
225.938957904215
  0
LINE
  5
60B
100
AcDbEntity
  8
0
100
AcDbLine
 62
     2
  6
CONTINUOUS
 10
490.633931418314
 20
359.499921056640
 11
486.140736802004
 21
363.405795547026
  0
ARC
  5
60C
100
AcDbEntity
  8
0
100
AcDbCircle
 62
     2
  6
CONTINUOUS
 10
485.484677773013
 20
362.651085966804
 40
2.600000000000
100
AcDbArc
 50
48.999999997355
 51
87.357131433585
  0
ARC
  5
60D
100
AcDbEntity
  8
0
100
AcDbCircle
 62
     2
  6
CONTINUOUS
 10
535.666666666762
 20
314.564196993810
 40
62.300000000137
100
AcDbArc
 50
133.501756838866
 51
134.978370909888
  0
ARC
  5
60E
100
AcDbEntity
  8
0
100
AcDbCircle
 62
     2
  6
CONTINUOUS
 10
535.666666666722
 20
314.564196993850
 40
59.800000000080
100
AcDbArc
 50
133.271143693593
 51
134.809948304722
  0
LINE
  5
60F
100
AcDbEntity
  8
0
100
AcDbLine
 62
     2
  6
CONTINUOUS
 10
501.547231111917
 20
352.133155156535
 11
497.408126500979
 21
355.731223901258
  0
ARC
  5
610
100
AcDbEntity
  8
0
100
AcDbCircle
 62
     2
  6
CONTINUOUS
 10
535.666666666667
 20
314.564196993907
 40
50.750000000000
100
AcDbArc
 50
47.754849829685
 51
132.245150160598
  0
ARC
  5
611
100
AcDbEntity
  8
0
100
AcDbCircle
 62
     2
  6
CONTINUOUS
 10
535.666666666667
 20
314.564196993907
 40
49.150000000000
100
AcDbArc
 50
47.975818696237
 51
132.024181294046
  0
ARC
  5
612
100
AcDbEntity
  8
0
100
AcDbCircle
 62
     2
  6
CONTINUOUS
 10
535.666666666667
 20
314.564196993907
 40
43.500000000000
100
AcDbArc
 50
48.887302446407
 51
131.112697543875
  0
ARC
  5
613
100
AcDbEntity
  8
0
100
AcDbCircle
 62
     2
  6
CONTINUOUS
 10
535.666666666667
 20
314.564196993907
 40
41.900000000000
100
AcDbArc
 50
49.190517819250
 51
130.809482171033
  0
ARC
  5
614
100
AcDbEntity
  8
0
100
AcDbCircle
 62
     2
  6
CONTINUOUS
 10
535.666666666667
 20
314.564196993907
 40
36.750000000000
100
AcDbArc
 50
50.347948834746
 51
129.652051155537
  0
ARC
  5
615
100
AcDbEntity
  8
0
100
AcDbCircle
 62
     2
  6
CONTINUOUS
 10
535.666666666667
 20
314.564196993907
 40
29.750000000000
100
AcDbArc
 50
52.574876253269
 51
127.425123737013
  0
ARC
  5
616
100
AcDbEntity
  8
0
100
AcDbCircle
 62
     2
  6
CONTINUOUS
 10
535.666666666667
 20
314.564196993907
 40
21.400000000000
100
AcDbArc
 50
57.196875187551
 51
122.803124802732
  0
ARC
  5
617
100
AcDbEntity
  8
0
100
AcDbCircle
 62
     2
  6
CONTINUOUS
 10
535.666666666667
 20
314.564196993907
 40
43.500000000000
100
AcDbArc
 50
313.235294695682
 51
46.764705265517
  0
ARC
  5
618
100
AcDbEntity
  8
0
100
AcDbCircle
 62
     2
  6
CONTINUOUS
 10
535.666666666667
 20
314.564196993907
 40
41.900000000000
100
AcDbArc
 50
313.014373388225
 51
46.985626572974
  0
ARC
  5
619
100
AcDbEntity
  8
0
100
AcDbCircle
 62
     2
  6
CONTINUOUS
 10
535.666666666667
 20
314.564196993907
 40
35.150000000000
100
AcDbArc
 50
50.777545322465
 51
129.222454667817
  0
ARC
  5
61A
100
AcDbEntity
  8
0
100
AcDbCircle
 62
     2
  6
CONTINUOUS
 10
559.339401023096
 20
314.564196993907
 40
21.500000000000
100
AcDbArc
 50
196.691296982114
 51
200.987259961425
  0
ARC
  5
61B
100
AcDbEntity
  8
0
100
AcDbCircle
 62
     2
  6
CONTINUOUS
 10
511.993932310237
 20
314.564196993907
 40
21.500000000000
100
AcDbArc
 50
323.218966823167
 51
339.012740009423
  0
ARC
  5
61C
100
AcDbEntity
  8
0
100
AcDbCircle
 62
     2
  6
CONTINUOUS
 10
559.339401023096
 20
314.564196993907
 40
21.500000000000
100
AcDbArc
 50
163.308702998452
 51
196.691296982114
  0
ARC
  5
61D
100
AcDbEntity
  8
0
100
AcDbCircle
 62
     2
  6
CONTINUOUS
 10
511.993932310237
 20
314.564196993907
 40
21.500000000000
100
AcDbArc
 50
339.012740009423
 51
343.308702988734
  0
ARC
  5
61E
100
AcDbEntity
  8
0
100
AcDbCircle
 62
     2
  6
CONTINUOUS
 10
559.339401023096
 20
314.564196993907
 40
19.900000000000
100
AcDbArc
 50
159.788353221855
 51
164.703833630021
  0
ARC
  5
61F
100
AcDbEntity
  8
0
100
AcDbCircle
 62
     2
  6
CONTINUOUS
 10
559.339401023096
 20
314.564196993907
 40
19.900000000000
100
AcDbArc
 50
142.657196925509
 51
159.788353221855
  0
ARC
  5
620
100
AcDbEntity
  8
0
100
AcDbCircle
 62
     2
  6
CONTINUOUS
 10
559.339401023096
 20
314.564196993907
 40
19.900000000000
100
AcDbArc
 50
195.296166350544
 51
200.211646758710
  0
ARC
  5
621
100
AcDbEntity
  8
0
100
AcDbCircle
 62
     2
  6
CONTINUOUS
 10
559.339401023096
 20
314.564196993907
 40
19.900000000000
100
AcDbArc
 50
138.021453108038
 51
142.657196925509
  0
ARC
  5
622
100
AcDbEntity
  8
0
100
AcDbCircle
 62
     2
  6
CONTINUOUS
 10
559.339401023096
 20
314.564196993907
 40
19.900000000000
100
AcDbArc
 50
200.211646758710
 51
217.342803055056
  0
ARC
  5
623
100
AcDbEntity
  8
0
100
AcDbCircle
 62
     2
  6
CONTINUOUS
 10
559.339401023096
 20
314.564196993907
 40
19.900000000000
100
AcDbArc
 50
217.342803055056
 51
221.978546872528
  0
ARC
  5
624
100
AcDbEntity
  8
0
100
AcDbCircle
 62
     2
  6
CONTINUOUS
 10
511.993932310237
 20
314.564196993907
 40
21.500000000000
100
AcDbArc
 50
318.863656956776
 51
323.218966823167
  0
ARC
  5
625
100
AcDbEntity
  8
0
100
AcDbCircle
 62
     2
  6
CONTINUOUS
 10
511.993932310237
 20
314.564196993907
 40
21.500000000000
100
AcDbArc
 50
310.999999983211
 51
318.863656956776
  0
ARC
  5
626
100
AcDbEntity
  8
0
100
AcDbCircle
 62
     2
  6
CONTINUOUS
 10
511.993932310237
 20
314.564196993907
 40
19.900000000000
100
AcDbArc
 50
310.999999983210
 51
318.021453098320
  0
ARC
  5
627
100
AcDbEntity
  8
0
100
AcDbCircle
 62
     2
  6
CONTINUOUS
 10
511.993932310237
 20
314.564196993907
 40
19.900000000000
100
AcDbArc
 50
37.342803064773
 51
41.978546882245
  0
ARC
  5
628
100
AcDbEntity
  8
0
100
AcDbCircle
 62
     2
  6
CONTINUOUS
 10
511.993932310237
 20
314.564196993907
 40
19.900000000000
100
AcDbArc
 50
318.021453098320
 51
322.657196915792
  0
ARC
  5
629
100
AcDbEntity
  8
0
100
AcDbCircle
 62
     2
  6
CONTINUOUS
 10
511.993932310237
 20
314.564196993907
 40
19.900000000000
100
AcDbArc
 50
322.657196915792
 51
339.788353212138
  0
ARC
  5
62A
100
AcDbEntity
  8
0
100
AcDbCircle
 62
     2
  6
CONTINUOUS
 10
511.993932310237
 20
314.564196993907
 40
19.900000000000
100
AcDbArc
 50
15.296166360261
 51
20.211646768427
  0
ARC
  5
62B
100
AcDbEntity
  8
0
100
AcDbCircle
 62
     2
  6
CONTINUOUS
 10
511.993932310237
 20
314.564196993907
 40
21.500000000000
100
AcDbArc
 50
343.308702988734
 51
16.691296972464
  0
ARC
  5
62C
100
AcDbEntity
  8
0
100
AcDbCircle
 62
     2
  6
CONTINUOUS
 10
559.339401023096
 20
314.564196993907
 40
21.500000000000
100
AcDbArc
 50
159.012740019140
 51
163.308702998452
  0
ARC
  5
62D
100
AcDbEntity
  8
0
100
AcDbCircle
 62
     2
  6
CONTINUOUS
 10
511.993932310237
 20
314.564196993907
 40
21.500000000000
100
AcDbArc
 50
16.691296991831
 51
20.987259971142
  0
ARC
  5
62E
100
AcDbEntity
  8
0
100
AcDbCircle
 62
     2
  6
CONTINUOUS
 10
559.339401023096
 20
314.564196993907
 40
21.500000000000
100
AcDbArc
 50
143.218966832884
 51
159.012740019140
  0
ARC
  5
62F
100
AcDbEntity
  8
0
100
AcDbCircle
 62
     2
  6
CONTINUOUS
 10
559.339401023096
 20
314.564196993907
 40
21.500000000000
100
AcDbArc
 50
138.863656966493
 51
143.218966832884
  0
ARC
  5
630
100
AcDbEntity
  8
0
100
AcDbCircle
 62
     2
  6
CONTINUOUS
 10
511.993932310237
 20
314.564196993907
 40
21.500000000000
100
AcDbArc
 50
36.781033157398
 51
41.136343023789
  0
ARC
  5
631
100
AcDbEntity
  8
0
100
AcDbCircle
 62
     2
  6
CONTINUOUS
 10
559.339401023096
 20
314.564196993907
 40
21.500000000000
100
AcDbArc
 50
130.999999992928
 51
138.863656966493
  0
ARC
  5
632
100
AcDbEntity
  8
0
100
AcDbCircle
 62
     2
  6
CONTINUOUS
 10
511.993932310237
 20
314.564196993907
 40
19.900000000000
100
AcDbArc
 50
41.978546882245
 51
48.999999997355
  0
ARC
  5
633
100
AcDbEntity
  8
0
100
AcDbCircle
 62
     2
  6
CONTINUOUS
 10
559.339401023096
 20
314.564196993907
 40
19.900000000000
100
AcDbArc
 50
221.978546872528
 51
228.999999987637
  0
ARC
  5
634
100
AcDbEntity
  8
0
100
AcDbCircle
 62
     2
  6
CONTINUOUS
 10
511.993932310237
 20
314.564196993907
 40
21.500000000000
100
AcDbArc
 50
41.136343023789
 51
48.999999997355
  0
ARC
  5
635
100
AcDbEntity
  8
0
100
AcDbCircle
 62
     2
  6
CONTINUOUS
 10
487.846490277379
 20
263.760353532209
 40
2.600000000000
100
AcDbArc
 50
130.999999992928
 51
169.357131429172
  0
ARC
  5
636
100
AcDbEntity
  8
0
100
AcDbCircle
 62
     2
  6
CONTINUOUS
 10
487.846490277379
 20
263.760353532209
 40
1.000000000000
100
AcDbArc
 50
130.999999992928
 51
199.214427710083
  0
ARC
  5
637
100
AcDbEntity
  8
0
100
AcDbCircle
 62
     2
  6
CONTINUOUS
 10
583.486843055955
 20
365.368040455606
 40
2.600000000000
100
AcDbArc
 50
310.999999983212
 51
349.357131419485
  0
ARC
  5
638
100
AcDbEntity
  8
0
100
AcDbCircle
 62
     2
  6
CONTINUOUS
 10
583.486843055955
 20
365.368040455606
 40
1.000000000000
100
AcDbArc
 50
310.999999983209
 51
19.214427700435
  0
ARC
  5
639
100
AcDbEntity
  8
0
100
AcDbCircle
 62
     2
  6
CONTINUOUS
 10
535.666666666609
 20
314.564196993967
 40
59.800000000083
100
AcDbArc
 50
313.271143683875
 51
314.809948295004
  0
ARC
  5
63A
100
AcDbEntity
  8
0
100
AcDbCircle
 62
     2
  6
CONTINUOUS
 10
535.666666666685
 20
314.564196993926
 40
59.800000000026
100
AcDbArc
 50
225.190051675843
 51
226.728856286973
  0
ARC
  5
63B
100
AcDbEntity
  8
0
100
AcDbCircle
 62
     2
  6
CONTINUOUS
 10
535.666666666837
 20
314.564196994082
 40
62.300000000244
100
AcDbArc
 50
225.021629070679
 51
226.498243141698
  0
ARC
  5
63C
100
AcDbEntity
  8
0
100
AcDbCircle
 62
     2
  6
CONTINUOUS
 10
535.666666666599
 20
314.564196993837
 40
59.800000000097
100
AcDbArc
 50
45.190051685561
 51
46.728856296690
  0
ARC
  5
63D
100
AcDbEntity
  8
0
100
AcDbCircle
 62
     2
  6
CONTINUOUS
 10
535.666666666562
 20
314.564196993799
 40
62.300000000151
100
AcDbArc
 50
45.021629080396
 51
46.498243151417
  0
ARC
  5
63E
100
AcDbEntity
  8
0
100
AcDbCircle
 62
     2
  6
CONTINUOUS
 10
535.666666666667
 20
314.564196993907
 40
6.900000000000
100
AcDbArc
 50
243.501414111509
 51
296.498585859339
  0
ARC
  5
63F
100
AcDbEntity
  8
0
100
AcDbCircle
 62
     2
  6
CONTINUOUS
 10
535.666666666667
 20
314.564196993907
 40
6.900000000000
100
AcDbArc
 50
310.461778287045
 51
49.538221674154
  0
ARC
  5
640
100
AcDbEntity
  8
0
100
AcDbCircle
 62
     2
  6
CONTINUOUS
 10
535.666666666667
 20
314.564196993907
 40
14.400000000000
100
AcDbArc
 50
303.042819073888
 51
56.957180887311
  0
ARC
  5
641
100
AcDbEntity
  8
0
100
AcDbCircle
 62
     2
  6
CONTINUOUS
 10
535.666666666667
 20
314.564196993907
 40
21.400000000000
100
AcDbArc
 50
307.218944855339
 51
52.781055105860
  0
ARC
  5
642
100
AcDbEntity
  8
0
100
AcDbCircle
 62
     2
  6
CONTINUOUS
 10
535.666666666667
 20
314.564196993907
 40
35.150000000000
100
AcDbArc
 50
311.859430140654
 51
48.140569820544
  0
ARC
  5
643
100
AcDbEntity
  8
0
100
AcDbCircle
 62
     2
  6
CONTINUOUS
 10
535.666666666667
 20
314.564196993907
 40
49.150000000000
100
AcDbArc
 50
313.899842927364
 51
46.100157033834
  0
ARC
  5
644
100
AcDbEntity
  8
0
100
AcDbCircle
 62
     2
  6
CONTINUOUS
 10
535.666666666667
 20
314.564196993907
 40
56.200000000000
100
AcDbArc
 50
314.541019683595
 51
45.458980277603
  0
ARC
  5
645
100
AcDbEntity
  8
0
100
AcDbCircle
 62
     2
  6
CONTINUOUS
 10
535.666666666667
 20
314.564196993907
 40
57.800000000000
100
AcDbArc
 50
314.664691148131
 51
45.335308813068
  0
ARC
  5
646
100
AcDbEntity
  8
0
100
AcDbCircle
 62
     2
  6
CONTINUOUS
 10
535.666666666667
 20
314.564196993907
 40
14.400000000000
100
AcDbArc
 50
243.377674693155
 51
296.622325277693
  0
ARC
  5
647
100
AcDbEntity
  8
0
100
AcDbCircle
 62
     2
  6
CONTINUOUS
 10
535.666666666667
 20
314.564196993907
 40
16.000000000000
100
AcDbArc
 50
242.127498582541
 51
297.872501388307
  0
ARC
  5
648
100
AcDbEntity
  8
0
100
AcDbCircle
 62
     2
  6
CONTINUOUS
 10
535.666666666667
 20
314.564196993907
 40
21.400000000000
100
AcDbArc
 50
237.196875177833
 51
302.803124793015
  0
ARC
  5
649
100
AcDbEntity
  8
0
100
AcDbCircle
 62
     2
  6
CONTINUOUS
 10
535.666666666667
 20
314.564196993907
 40
23.000000000000
100
AcDbArc
 50
236.042430904291
 51
303.957569066557
  0
ARC
  5
64A
100
AcDbEntity
  8
0
100
AcDbCircle
 62
     2
  6
CONTINUOUS
 10
535.666666666667
 20
314.564196993907
 40
28.150000000000
100
AcDbArc
 50
130.070761773797
 51
229.929238206768
  0
ARC
  5
64B
100
AcDbEntity
  8
0
100
AcDbCircle
 62
     2
  6
CONTINUOUS
 10
535.666666666667
 20
314.564196993907
 40
14.400000000000
100
AcDbArc
 50
123.042819083605
 51
236.957180896960
  0
ARC
  5
64C
100
AcDbEntity
  8
0
100
AcDbCircle
 62
     2
  6
CONTINUOUS
 10
535.666666666667
 20
314.564196993907
 40
6.900000000000
100
AcDbArc
 50
63.501414121226
 51
116.498585869056
  0
ARC
  5
64D
100
AcDbEntity
  8
0
100
AcDbCircle
 62
     2
  6
CONTINUOUS
 10
535.666666666667
 20
314.564196993907
 40
14.400000000000
100
AcDbArc
 50
63.377674702873
 51
116.622325287410
  0
ARC
  5
64E
100
AcDbEntity
  8
0
100
AcDbCircle
 62
     2
  6
CONTINUOUS
 10
535.666666666667
 20
314.564196993907
 40
16.000000000000
100
AcDbArc
 50
62.127498592258
 51
117.872501398025
  0
ARC
  5
64F
100
AcDbEntity
  8
0
100
AcDbCircle
 62
     2
  6
CONTINUOUS
 10
535.666666666667
 20
314.564196993907
 40
23.000000000000
100
AcDbArc
 50
56.042430914008
 51
123.957569076275
  0
ARC
  5
650
100
AcDbEntity
  8
0
100
AcDbCircle
 62
     2
  6
CONTINUOUS
 10
535.666666666667
 20
314.564196993907
 40
28.150000000000
100
AcDbArc
 50
53.242684093495
 51
126.757315896788
  0
ARC
  5
651
100
AcDbEntity
  8
0
100
AcDbCircle
 62
     2
  6
CONTINUOUS
 10
588.066666666667
 20
366.964196993907
 40
3.850000000000
100
AcDbArc
 50
254.999999986234
 51
199.214427690716
  0
ARC
  5
652
100
AcDbEntity
  8
0
100
AcDbCircle
 62
     2
  6
CONTINUOUS
 10
588.066666666668
 20
366.964196993910
 40
3.850000000003
100
AcDbArc
 50
239.999999987047
 51
254.999999986225
  0
ARC
  5
653
100
AcDbEntity
  8
0
100
AcDbCircle
 62
     2
  6
CONTINUOUS
 10
483.266666666667
 20
262.164196993907
 40
3.850000000000
100
AcDbArc
 50
59.999999996761
 51
19.214427700435
  0
LINE
  5
654
100
AcDbEntity
  8
0
100
AcDbLine
 62
     2
  6
CONTINUOUS
 10
578.552542387072
 20
269.374688657415
 11
579.542953085131
 21
268.513737772601
  0
LINE
  5
655
100
AcDbEntity
  8
0
100
AcDbLine
 62
     2
  6
CONTINUOUS
 10
576.656680261888
 20
271.022736459566
 11
578.552542387072
 21
269.374688657415
  0
LINE
  5
656
100
AcDbEntity
  8
0
100
AcDbLine
 62
     2
  6
CONTINUOUS
 10
494.676653071446
 20
271.022736459566
 11
496.193913226909
 21
272.341670590527
  0
LINE
  5
657
100
AcDbEntity
  8
0
100
AcDbLine
 62
     2
  6
CONTINUOUS
 10
493.522173986661
 20
272.139183891435
 11
491.630547194430
 21
270.494817808050
  0
LINE
  5
658
100
AcDbEntity
  8
0
100
AcDbLine
 62
     2
  6
CONTINUOUS
 10
492.780790946261
 20
269.374688657415
 11
494.676653071446
 21
271.022736459566
  0
LINE
  5
659
100
AcDbEntity
  8
0
100
AcDbLine
 62
     2
  6
CONTINUOUS
 10
491.630547194430
 20
270.494817808050
 11
490.633931418314
 21
269.628472931175
  0
LINE
  5
65A
100
AcDbEntity
  8
0
100
AcDbLine
 62
     2
  6
CONTINUOUS
 10
493.522173986661
 20
356.989210096380
 11
495.035778929627
 21
355.673453393167
  0
LINE
  5
65B
100
AcDbEntity
  8
0
100
AcDbLine
 62
     2
  6
CONTINUOUS
 10
494.676653071446
 20
358.105657528249
 11
492.780790946261
 21
359.753705330400
  0
LINE
  5
65C
100
AcDbEntity
  8
0
100
AcDbLine
 62
     2
  6
CONTINUOUS
 10
491.630547194430
 20
358.633576179765
 11
493.522173986661
 21
356.989210096380
  0
LINE
  5
65D
100
AcDbEntity
  8
0
100
AcDbLine
 62
     2
  6
CONTINUOUS
 10
576.656680261888
 20
358.105657528249
 11
575.139420106424
 21
356.786723397287
  0
LINE
  5
65E
100
AcDbEntity
  8
0
100
AcDbLine
 62
     2
  6
CONTINUOUS
 10
577.811159346672
 20
356.989210096380
 11
579.702786138904
 21
358.633576179765
  0
LINE
  5
65F
100
AcDbEntity
  8
0
100
AcDbLine
 62
     2
  6
CONTINUOUS
 10
578.552542387072
 20
359.753705330400
 11
576.656680261888
 21
358.105657528249
  0
LINE
  5
660
100
AcDbEntity
  8
0
100
AcDbLine
 62
     2
  6
CONTINUOUS
 10
579.702786138904
 20
358.633576179765
 11
580.699401915019
 21
359.499921056640
  0
LINE
  5
661
100
AcDbEntity
  8
0
100
AcDbLine
 62
     2
  6
CONTINUOUS
 10
548.610723198027
 20
331.605658213913
 11
549.842381846595
 21
332.676322742630
  0
LINE
  5
662
100
AcDbEntity
  8
0
100
AcDbLine
 62
     2
  6
CONTINUOUS
 10
548.610723198027
 20
297.522735773902
 11
546.283826346185
 21
299.545476347474
  0
LINE
  5
663
100
AcDbEntity
  8
0
100
AcDbLine
 62
     2
  6
CONTINUOUS
 10
549.842381846595
 20
332.676322742630
 11
553.787756361457
 21
336.105984484117
  0
LINE
  5
664
100
AcDbEntity
  8
0
100
AcDbLine
 62
     2
  6
CONTINUOUS
 10
549.842381846595
 20
296.452071245185
 11
548.610723198027
 21
297.522735773902
  0
LINE
  5
665
100
AcDbEntity
  8
0
100
AcDbLine
 62
     2
  6
CONTINUOUS
 10
553.787756361457
 20
336.105984484117
 11
555.009295225124
 21
337.167852018030
  0
LINE
  5
666
100
AcDbEntity
  8
0
100
AcDbLine
 62
     2
  6
CONTINUOUS
 10
553.787756361457
 20
293.022409503697
 11
549.842381846595
 21
296.452071245185
  0
LINE
  5
667
100
AcDbEntity
  8
0
100
AcDbLine
 62
     2
  6
CONTINUOUS
 10
555.009295225124
 20
337.167852018030
 11
559.122449999202
 21
340.743362913722
  0
LINE
  5
668
100
AcDbEntity
  8
0
100
AcDbLine
 62
     2
  6
CONTINUOUS
 10
555.009295225124
 20
291.960541969784
 11
553.787756361457
 21
293.022409503697
  0
LINE
  5
669
100
AcDbEntity
  8
0
100
AcDbLine
 62
     2
  6
CONTINUOUS
 10
559.122449999202
 20
340.743362913722
 11
560.339008487121
 21
341.800901073048
  0
LINE
  5
66A
100
AcDbEntity
  8
0
100
AcDbLine
 62
     2
  6
CONTINUOUS
 10
559.122449999202
 20
288.385031074093
 11
555.009295225124
 21
291.960541969784
  0
LINE
  5
66B
100
AcDbEntity
  8
0
100
AcDbLine
 62
     2
  6
CONTINUOUS
 10
560.339008487121
 20
287.327492914767
 11
559.122449999202
 21
288.385031074093
  0
LINE
  5
66C
100
AcDbEntity
  8
0
100
AcDbLine
 62
     2
  6
CONTINUOUS
 10
564.250084437071
 20
283.927646460883
 11
560.339008487121
 21
287.327492914767
  0
LINE
  5
66D
100
AcDbEntity
  8
0
100
AcDbLine
 62
     2
  6
CONTINUOUS
 10
565.463993850416
 20
346.255982880862
 11
569.747269448622
 21
349.979377552795
  0
LINE
  5
66E
100
AcDbEntity
  8
0
100
AcDbLine
 62
     2
  6
CONTINUOUS
 10
569.747269448622
 20
349.979377552795
 11
570.959452437178
 21
351.033112148553
  0
LINE
  5
66F
100
AcDbEntity
  8
0
100
AcDbLine
 62
     2
  6
CONTINUOUS
 10
570.959452437178
 20
351.033112148553
 11
575.086454997609
 21
354.620660741269
  0
LINE
  5
670
100
AcDbEntity
  8
0
100
AcDbLine
 62
     2
  6
CONTINUOUS
 10
570.959452437178
 20
278.095281839261
 11
569.747269448622
 21
279.149016435020
  0
LINE
  5
671
100
AcDbEntity
  8
0
100
AcDbLine
 62
     2
  6
CONTINUOUS
 10
575.086454997609
 20
354.620660741269
 11
576.297554403707
 21
355.673453393167
  0
LINE
  5
672
100
AcDbEntity
  8
0
100
AcDbLine
 62
     2
  6
CONTINUOUS
 10
547.260203389666
 20
296.576703943110
 11
548.513979038633
 21
295.486813399266
  0
LINE
  5
673
100
AcDbEntity
  8
0
100
AcDbLine
 62
     2
  6
CONTINUOUS
 10
524.073129943668
 20
296.576703943110
 11
526.099201433533
 21
298.337941019118
  0
LINE
  5
674
100
AcDbEntity
  8
0
100
AcDbLine
 62
     2
  6
CONTINUOUS
 10
522.819354294700
 20
295.486813399266
 11
524.073129943668
 21
296.576703943110
  0
LINE
  5
675
100
AcDbEntity
  8
0
100
AcDbLine
 62
     2
  6
CONTINUOUS
 10
552.512384044468
 20
292.011052955276
 11
553.746459409723
 21
290.938287606793
  0
LINE
  5
676
100
AcDbEntity
  8
0
100
AcDbLine
 62
     2
  6
CONTINUOUS
 10
518.820949288866
 20
292.011052955276
 11
522.819354294700
 21
295.486813399266
  0
LINE
  5
677
100
AcDbEntity
  8
0
100
AcDbLine
 62
     2
  6
CONTINUOUS
 10
553.746459409723
 20
290.938287606793
 11
557.893170248290
 21
287.333606869268
  0
LINE
  5
678
100
AcDbEntity
  8
0
100
AcDbLine
 62
     2
  6
CONTINUOUS
 10
517.586873923610
 20
290.938287606793
 11
518.820949288866
 21
292.011052955276
  0
LINE
  5
679
100
AcDbEntity
  8
0
100
AcDbLine
 62
     2
  6
CONTINUOUS
 10
557.893170248290
 20
287.333606869268
 11
559.117713019730
 21
286.269128078167
  0
LINE
  5
67A
100
AcDbEntity
  8
0
100
AcDbLine
 62
     2
  6
CONTINUOUS
 10
513.440163085043
 20
287.333606869268
 11
517.586873923610
 21
290.938287606793
  0
LINE
  5
67B
100
AcDbEntity
  8
0
100
AcDbLine
 62
     2
  6
CONTINUOUS
 10
559.117713019730
 20
286.269128078167
 11
563.050238791905
 21
282.850635578294
  0
LINE
  5
67C
100
AcDbEntity
  8
0
100
AcDbLine
 62
     2
  6
CONTINUOUS
 10
512.215620313603
 20
286.269128078167
 11
513.440163085043
 21
287.333606869268
  0
LINE
  5
67D
100
AcDbEntity
  8
0
100
AcDbLine
 62
     2
  6
CONTINUOUS
 10
563.050238791905
 20
282.850635578294
 11
564.269753667367
 21
281.790527470487
  0
LINE
  5
67E
100
AcDbEntity
  8
0
100
AcDbLine
 62
     2
  6
CONTINUOUS
 10
508.283094541428
 20
282.850635578294
 11
512.215620313603
 21
286.269128078167
  0
LINE
  5
67F
100
AcDbEntity
  8
0
100
AcDbLine
 62
     2
  6
CONTINUOUS
 10
564.269753667367
 20
281.790527470487
 11
568.569848411915
 21
278.052512137698
  0
LINE
  5
680
100
AcDbEntity
  8
0
100
AcDbLine
 62
     2
  6
CONTINUOUS
 10
507.063579665967
 20
281.790527470487
 11
508.283094541428
 21
282.850635578294
  0
LINE
  5
681
100
AcDbEntity
  8
0
100
AcDbLine
 62
     2
  6
CONTINUOUS
 10
568.569848411915
 20
278.052512137698
 11
569.786102221416
 21
276.995238831279
  0
LINE
  5
682
100
AcDbEntity
  8
0
100
AcDbLine
 62
     2
  6
CONTINUOUS
 10
502.763484921419
 20
278.052512137698
 11
507.063579665967
 21
281.790527470487
  0
LINE
  5
683
100
AcDbEntity
  8
0
100
AcDbLine
 62
     2
  6
CONTINUOUS
 10
569.786102221416
 20
276.995238831279
 11
573.925206832354
 21
273.397170086557
  0
LINE
  5
684
100
AcDbEntity
  8
0
100
AcDbLine
 62
     2
  6
CONTINUOUS
 10
501.547231111917
 20
276.995238831279
 11
502.763484921419
 21
278.052512137698
  0
LINE
  5
685
100
AcDbEntity
  8
0
100
AcDbLine
 62
     2
  6
CONTINUOUS
 10
573.925206832354
 20
273.397170086557
 11
575.139420106424
 21
272.341670590527
  0
LINE
  5
686
100
AcDbEntity
  8
0
100
AcDbLine
 62
     2
  6
CONTINUOUS
 10
497.408126500979
 20
273.397170086557
 11
501.547231111917
 21
276.995238831279
  0
LINE
  5
687
100
AcDbEntity
  8
0
100
AcDbLine
 62
     2
  6
CONTINUOUS
 10
575.139420106424
 20
272.341670590527
 11
576.656680261888
 21
271.022736459566
  0
LINE
  5
688
100
AcDbEntity
  8
0
100
AcDbLine
 62
     2
  6
CONTINUOUS
 10
496.193913226909
 20
272.341670590527
 11
497.408126500979
 21
273.397170086557
  0
LINE
  5
689
100
AcDbEntity
  8
0
100
AcDbLine
 62
     2
  6
CONTINUOUS
 10
495.035778929627
 20
273.454940594648
 11
493.522173986661
 21
272.139183891435
  0
LINE
  5
68A
100
AcDbEntity
  8
0
100
AcDbLine
 62
     2
  6
CONTINUOUS
 10
495.035778929627
 20
355.673453393167
 11
496.246878335724
 21
354.620660741269
  0
LINE
  5
68B
100
AcDbEntity
  8
0
100
AcDbLine
 62
     2
  6
CONTINUOUS
 10
496.246878335724
 20
274.507733246546
 11
495.035778929627
 21
273.454940594648
  0
LINE
  5
68C
100
AcDbEntity
  8
0
100
AcDbLine
 62
     2
  6
CONTINUOUS
 10
496.246878335724
 20
354.620660741269
 11
500.373880896155
 21
351.033112148553
  0
LINE
  5
68D
100
AcDbEntity
  8
0
100
AcDbLine
 62
     2
  6
CONTINUOUS
 10
500.373880896155
 20
278.095281839261
 11
496.246878335724
 21
274.507733246546
  0
LINE
  5
68E
100
AcDbEntity
  8
0
100
AcDbLine
 62
     2
  6
CONTINUOUS
 10
500.373880896155
 20
351.033112148553
 11
501.586063884711
 21
349.979377552795
  0
LINE
  5
68F
100
AcDbEntity
  8
0
100
AcDbLine
 62
     2
  6
CONTINUOUS
 10
501.586063884711
 20
279.149016435020
 11
500.373880896155
 21
278.095281839261
  0
LINE
  5
690
100
AcDbEntity
  8
0
100
AcDbLine
 62
     2
  6
CONTINUOUS
 10
501.586063884711
 20
349.979377552795
 11
505.869339482917
 21
346.255982880862
  0
LINE
  5
691
100
AcDbEntity
  8
0
100
AcDbLine
 62
     2
  6
CONTINUOUS
 10
505.869339482917
 20
282.872411106952
 11
501.586063884711
 21
279.149016435020
  0
LINE
  5
692
100
AcDbEntity
  8
0
100
AcDbLine
 62
     2
  6
CONTINUOUS
 10
505.869339482917
 20
346.255982880862
 11
507.083248896262
 21
345.200747526931
  0
LINE
  5
693
100
AcDbEntity
  8
0
100
AcDbLine
 62
     2
  6
CONTINUOUS
 10
507.083248896262
 20
283.927646460883
 11
505.869339482917
 21
282.872411106952
  0
LINE
  5
694
100
AcDbEntity
  8
0
100
AcDbLine
 62
     2
  6
CONTINUOUS
 10
507.083248896262
 20
345.200747526931
 11
510.994324846212
 21
341.800901073048
  0
LINE
  5
695
100
AcDbEntity
  8
0
100
AcDbLine
 62
     2
  6
CONTINUOUS
 10
510.994324846212
 20
287.327492914767
 11
507.083248896262
 21
283.927646460883
  0
LINE
  5
696
100
AcDbEntity
  8
0
100
AcDbLine
 62
     2
  6
CONTINUOUS
 10
510.994324846212
 20
341.800901073048
 11
512.210883334131
 21
340.743362913722
  0
LINE
  5
697
100
AcDbEntity
  8
0
100
AcDbLine
 62
     2
  6
CONTINUOUS
 10
512.210883334132
 20
288.385031074093
 11
510.994324846212
 21
287.327492914767
  0
LINE
  5
698
100
AcDbEntity
  8
0
100
AcDbLine
 62
     2
  6
CONTINUOUS
 10
512.210883334131
 20
340.743362913722
 11
516.324038108209
 21
337.167852018030
  0
LINE
  5
699
100
AcDbEntity
  8
0
100
AcDbLine
 62
     2
  6
CONTINUOUS
 10
516.324038108210
 20
291.960541969784
 11
512.210883334132
 21
288.385031074093
  0
LINE
  5
69A
100
AcDbEntity
  8
0
100
AcDbLine
 62
     2
  6
CONTINUOUS
 10
516.324038108209
 20
337.167852018030
 11
517.545576971876
 21
336.105984484117
  0
LINE
  5
69B
100
AcDbEntity
  8
0
100
AcDbLine
 62
     2
  6
CONTINUOUS
 10
517.545576971877
 20
293.022409503697
 11
516.324038108210
 21
291.960541969784
  0
LINE
  5
69C
100
AcDbEntity
  8
0
100
AcDbLine
 62
     2
  6
CONTINUOUS
 10
521.490951486738
 20
296.452071245185
 11
517.545576971877
 21
293.022409503697
  0
LINE
  5
69D
100
AcDbEntity
  8
0
100
AcDbLine
 62
     2
  6
CONTINUOUS
 10
521.490951486738
 20
332.676322742630
 11
522.722610135307
 21
331.605658213913
  0
LINE
  5
69E
100
AcDbEntity
  8
0
100
AcDbLine
 62
     2
  6
CONTINUOUS
 10
522.722610135307
 20
297.522735773902
 11
521.490951486738
 21
296.452071245185
  0
LINE
  5
69F
100
AcDbEntity
  8
0
100
AcDbLine
 62
     2
  6
CONTINUOUS
 10
524.073129943668
 20
332.551690044704
 11
522.819354294700
 21
333.641580588549
  0
LINE
  5
6A0
100
AcDbEntity
  8
0
100
AcDbLine
 62
     2
  6
CONTINUOUS
 10
547.260203389666
 20
332.551690044704
 11
545.234131899800
 21
330.790452968697
  0
LINE
  5
6A1
100
AcDbEntity
  8
0
100
AcDbLine
 62
     2
  6
CONTINUOUS
 10
548.513979038633
 20
333.641580588549
 11
547.260203389666
 21
332.551690044704
  0
LINE
  5
6A2
100
AcDbEntity
  8
0
100
AcDbLine
 62
     2
  6
CONTINUOUS
 10
518.820949288866
 20
337.117341032539
 11
517.586873923610
 21
338.190106381021
  0
LINE
  5
6A3
100
AcDbEntity
  8
0
100
AcDbLine
 62
     2
  6
CONTINUOUS
 10
552.512384044468
 20
337.117341032539
 11
548.513979038633
 21
333.641580588549
  0
LINE
  5
6A4
100
AcDbEntity
  8
0
100
AcDbLine
 62
     2
  6
CONTINUOUS
 10
553.746459409723
 20
338.190106381021
 11
552.512384044468
 21
337.117341032539
  0
LINE
  5
6A5
100
AcDbEntity
  8
0
100
AcDbLine
 62
     2
  6
CONTINUOUS
 10
557.893170248290
 20
341.794787118546
 11
553.746459409723
 21
338.190106381021
  0
LINE
  5
6A6
100
AcDbEntity
  8
0
100
AcDbLine
 62
     2
  6
CONTINUOUS
 10
512.215620313604
 20
342.859265909647
 11
508.283094541428
 21
346.277758409520
  0
LINE
  5
6A7
100
AcDbEntity
  8
0
100
AcDbLine
 62
     2
  6
CONTINUOUS
 10
559.117713019730
 20
342.859265909647
 11
557.893170248290
 21
341.794787118546
  0
LINE
  5
6A8
100
AcDbEntity
  8
0
100
AcDbLine
 62
     2
  6
CONTINUOUS
 10
563.050238791905
 20
346.277758409520
 11
559.117713019730
 21
342.859265909647
  0
LINE
  5
6A9
100
AcDbEntity
  8
0
100
AcDbLine
 62
     2
  6
CONTINUOUS
 10
564.269753667366
 20
347.337866517328
 11
563.050238791905
 21
346.277758409520
  0
LINE
  5
6AA
100
AcDbEntity
  8
0
100
AcDbLine
 62
     2
  6
CONTINUOUS
 10
568.569848411915
 20
351.075881850117
 11
564.269753667366
 21
347.337866517328
  0
LINE
  5
6AB
100
AcDbEntity
  8
0
100
AcDbLine
 62
     2
  6
CONTINUOUS
 10
569.786102221416
 20
352.133155156535
 11
568.569848411915
 21
351.075881850117
  0
LINE
  5
6AC
100
AcDbEntity
  8
0
100
AcDbLine
 62
     2
  6
CONTINUOUS
 10
497.408126500979
 20
355.731223901258
 11
496.193913226909
 21
356.786723397287
  0
LINE
  5
6AD
100
AcDbEntity
  8
0
100
AcDbLine
 62
     2
  6
CONTINUOUS
 10
573.925206832354
 20
355.731223901258
 11
569.786102221416
 21
352.133155156535
  0
LINE
  5
6AE
100
AcDbEntity
  8
0
100
AcDbLine
 62
     2
  6
CONTINUOUS
 10
496.193913226909
 20
356.786723397287
 11
494.676653071446
 21
358.105657528249
  0
LINE
  5
6AF
100
AcDbEntity
  8
0
100
AcDbLine
 62
     2
  6
CONTINUOUS
 10
575.139420106424
 20
356.786723397287
 11
573.925206832354
 21
355.731223901258
  0
LINE
  5
6B0
100
AcDbEntity
  8
0
100
AcDbLine
 62
     2
  6
CONTINUOUS
 10
525.049506987148
 20
299.545476347474
 11
522.722610135307
 21
297.522735773902
  0
LINE
  5
6B1
100
AcDbEntity
  8
0
100
AcDbLine
 62
     2
  6
CONTINUOUS
 10
490.633931418314
 20
359.499921056640
 11
491.630547194430
 21
358.633576179765
  0
LINE
  5
6B2
100
AcDbEntity
  8
0
100
AcDbLine
 62
     2
  6
CONTINUOUS
 10
491.790380248202
 20
268.513737772601
 11
492.780790946261
 21
269.374688657415
  0
LINE
  5
6B3
100
AcDbEntity
  8
0
100
AcDbLine
 62
     2
  6
CONTINUOUS
 10
580.699401915019
 20
269.628472931175
 11
579.702786138904
 21
270.494817808050
  0
LINE
  5
6B4
100
AcDbEntity
  8
0
100
AcDbLine
 62
     2
  6
CONTINUOUS
 10
584.142902084945
 20
264.515063112432
 11
579.542953085131
 21
268.513737772601
  0
LINE
  5
6B5
100
AcDbEntity
  8
0
100
AcDbLine
 62
     2
  6
CONTINUOUS
 10
491.790380248202
 20
268.513737772601
 11
487.190431248388
 21
264.515063112432
  0
LINE
  5
6B6
100
AcDbEntity
  8
0
100
AcDbLine
 62
     2
  6
CONTINUOUS
 10
490.633931418314
 20
269.628472931175
 11
486.140736802004
 21
265.722598440788
  0
LINE
  5
6B7
100
AcDbEntity
  8
0
100
AcDbLine
 62
     2
  6
CONTINUOUS
 10
584.142902084945
 20
364.613330875383
 11
579.542953085131
 21
360.614656215214
  0
LINE
  5
6B8
100
AcDbEntity
  8
0
100
AcDbLine
 62
     2
  6
CONTINUOUS
 10
585.192596531330
 20
363.405795547026
 11
580.699401915019
 21
359.499921056640
  0
LINE
  5
6B9
100
AcDbEntity
  8
0
100
AcDbLine
 62
     2
  6
CONTINUOUS
 10
588.066666666667
 20
263.321271717019
 11
588.066666666667
 21
261.027594880578
  0
LINE
  5
6BA
100
AcDbEntity
  8
0
100
AcDbLine
 62
     2
  6
CONTINUOUS
 10
586.616666666667
 20
364.452723322932
 11
586.141666666667
 21
363.629999189337
  0
LINE
  5
6BB
100
AcDbEntity
  8
0
100
AcDbLine
 62
     2
  6
CONTINUOUS
 10
484.716666666667
 20
264.675670664882
 11
485.191666666667
 21
265.498394798477
  0
LINE
  5
6BC
100
AcDbEntity
  8
0
100
AcDbLine
 62
     2
  6
CONTINUOUS
 10
585.438374084260
 20
263.389789952955
 11
584.577381686576
 21
263.791277301609
  0
LINE
  5
6BD
100
AcDbEntity
  8
0
100
AcDbLine
 62
     2
  6
CONTINUOUS
 10
485.894959249073
 20
365.738604034859
 11
486.755951646758
 21
365.337116686206
  0
LINE
  5
6BE
100
AcDbEntity
  8
0
100
AcDbLine
 62
     2
  6
CONTINUOUS
 10
564.250084437071
 20
345.200747526931
 11
565.463993850416
 21
346.255982880862
  0
LINE
  5
6BF
100
AcDbEntity
  8
0
100
AcDbLine
 62
     2
  6
CONTINUOUS
 10
560.339008487121
 20
341.800901073048
 11
564.250084437071
 21
345.200747526931
  0
LINE
  5
6C0
100
AcDbEntity
  8
0
100
AcDbLine
 62
     2
  6
CONTINUOUS
 10
579.542953085131
 20
360.614656215214
 11
578.552542387072
 21
359.753705330400
  0
LINE
  5
6C1
100
AcDbEntity
  8
0
100
AcDbLine
 62
     2
  6
CONTINUOUS
 10
576.297554403707
 20
355.673453393167
 11
577.811159346672
 21
356.989210096380
  0
LINE
  5
6C2
100
AcDbEntity
  8
0
100
AcDbLine
 62
     2
  6
CONTINUOUS
 10
546.283826346185
 20
329.582917640340
 11
548.610723198027
 21
331.605658213913
  0
ARC
  5
6C3
100
AcDbEntity
  8
0
100
AcDbCircle
 62
     2
  6
CONTINUOUS
 10
559.339401023096
 20
314.564196993907
 40
19.900000000000
100
AcDbArc
 50
130.999999992928
 51
138.021453108038
  0
LINE
  5
6C4
100
AcDbEntity
  8
0
100
AcDbLine
 62
     0
  6
CENTER2
 48
10.0
 10
478.410656721393
 20
262.164196993907
 11
488.431640924017
 21
262.164196993907
  0
LINE
  5
6C5
100
AcDbEntity
  8
0
100
AcDbLine
 62
     0
  6
CENTER2
 48
10.0
 10
483.266666666667
 20
257.533669244250
 11
483.266666666667
 21
267.438130374750
  0
LINE
  5
6C6
100
AcDbEntity
  8
0
100
AcDbLine
 62
     0
  6
CENTER2
 48
10.0
 10
583.210656721393
 20
366.964196993907
 11
593.231640924017
 21
366.964196993907
  0
LINE
  5
6C7
100
AcDbEntity
  8
0
100
AcDbLine
 62
     0
  6
CENTER2
 48
10.0
 10
588.066666666667
 20
362.333669244250
 11
588.066666666667
 21
372.238130374750
  0
ARC
  5
6C8
100
AcDbEntity
  8
0
100
AcDbCircle
 62
     2
  6
CONTINUOUS
 10
535.666666666667
 20
314.564196993907
 40
8.500000000000
100
AcDbArc
 50
64.949509479513
 51
115.050490510769
  0
ARC
  5
6C9
100
AcDbEntity
  8
0
100
AcDbCircle
 62
     2
  6
CONTINUOUS
 10
535.666666666667
 20
314.564196993907
 40
23.000000000000
100
AcDbArc
 50
128.049020130905
 51
231.950979849661
  0
ARC
  5
6CA
100
AcDbEntity
  8
0
100
AcDbCircle
 62
     2
  6
CONTINUOUS
 10
535.666666666667
 20
314.564196993907
 40
36.750000000000
100
AcDbArc
 50
132.171826536743
 51
227.828173443822
  0
ARC
  5
6CB
100
AcDbEntity
  8
0
100
AcDbCircle
 62
     2
  6
CONTINUOUS
 10
535.666666666667
 20
314.564196993907
 40
43.500000000000
100
AcDbArc
 50
133.235294705399
 51
226.764705275166
  0
ARC
  5
6CC
100
AcDbEntity
  8
0
100
AcDbCircle
 62
     2
  6
CONTINUOUS
 10
535.666666666667
 20
314.564196993907
 40
49.150000000000
100
AcDbArc
 50
133.899842937082
 51
226.100157043484
  0
ARC
  5
6CD
100
AcDbEntity
  8
0
100
AcDbCircle
 62
     2
  6
CONTINUOUS
 10
535.666666666667
 20
314.564196993907
 40
56.200000000000
100
AcDbArc
 50
134.541019693313
 51
225.458980287253
  0
ARC
  5
6CE
100
AcDbEntity
  8
0
100
AcDbCircle
 62
     2
  6
CONTINUOUS
 10
535.666666666667
 20
314.564196993907
 40
57.800000000000
100
AcDbArc
 50
134.664691157848
 51
225.335308822717
  0
ARC
  5
6CF
100
AcDbEntity
  8
0
100
AcDbCircle
 62
     2
  6
CONTINUOUS
 10
485.484677773013
 20
362.651085966804
 40
1.000000000000
100
AcDbArc
 50
48.999999997352
 51
117.214427714511
  0
LINE
  5
6D0
100
AcDbEntity
  8
0
100
AcDbLine
 62
     0
  6
CENTER2
 48
10.0
 10
483.266666666667
 20
362.333669244250
 11
483.266666666667
 21
372.238130374750
  0
ARC
  5
6D1
100
AcDbEntity
  8
0
100
AcDbCircle
 62
     2
  6
CONTINUOUS
 10
483.266666666667
 20
366.964196993907
 40
3.850000000000
100
AcDbArc
 50
334.999999981915
 51
297.214427685427
  0
LINE
  5
6D2
100
AcDbEntity
  8
0
100
AcDbLine
 62
     0
  6
CENTER2
 48
10.0
 10
478.410656721393
 20
366.964196993907
 11
488.431640924017
 21
366.964196993907
  0
LINE
  5
6D3
100
AcDbEntity
  8
0
100
AcDbLine
 62
     2
  6
CONTINUOUS
 10
492.780790946261
 20
359.753705330400
 11
491.790380248202
 21
360.614656215214
  0
LINE
  5
6D4
100
AcDbEntity
  8
0
100
AcDbLine
 62
     2
  6
CONTINUOUS
 10
491.790380248202
 20
360.614656215214
 11
487.190431248388
 21
364.613330875383
  0
ARC
  5
6D5
100
AcDbEntity
  8
0
100
AcDbCircle
 62
     2
  6
CONTINUOUS
 10
535.666666666667
 20
314.564196993907
 40
57.800000000000
100
AcDbArc
 50
46.927784916640
 51
133.072215073643
  0
ARC
  5
6D6
100
AcDbEntity
  8
0
100
AcDbCircle
 62
     2
  6
CONTINUOUS
 10
535.666666666667
 20
314.564196993907
 40
56.200000000000
100
AcDbArc
 50
47.097178447914
 51
132.902821542369
  0
LINE
  5
6D7
100
AcDbEntity
  8
0
100
AcDbLine
 62
     2
  6
CONTINUOUS
 10
502.763484921419
 20
351.075881850117
 11
501.547231111917
 21
352.133155156535
  0
LINE
  5
6D8
100
AcDbEntity
  8
0
100
AcDbLine
 62
     2
  6
CONTINUOUS
 10
508.283094541428
 20
346.277758409520
 11
507.063579665967
 21
347.337866517328
  0
LINE
  5
6D9
100
AcDbEntity
  8
0
100
AcDbLine
 62
     2
  6
CONTINUOUS
 10
507.063579665967
 20
347.337866517328
 11
502.763484921419
 21
351.075881850117
  0
LINE
  5
6DA
100
AcDbEntity
  8
0
100
AcDbLine
 62
     2
  6
CONTINUOUS
 10
517.586873923610
 20
338.190106381021
 11
513.440163085043
 21
341.794787118546
  0
LINE
  5
6DB
100
AcDbEntity
  8
0
100
AcDbLine
 62
     2
  6
CONTINUOUS
 10
513.440163085043
 20
341.794787118546
 11
512.215620313604
 21
342.859265909647
  0
LINE
  5
6DC
100
AcDbEntity
  8
0
100
AcDbLine
 62
     2
  6
CONTINUOUS
 10
517.545576971876
 20
336.105984484117
 11
521.490951486738
 21
332.676322742630
  0
LINE
  5
6DD
100
AcDbEntity
  8
0
100
AcDbLine
 62
     2
  6
CONTINUOUS
 10
522.819354294700
 20
333.641580588549
 11
518.820949288866
 21
337.117341032539
  0
LINE
  5
6DE
100
AcDbEntity
  8
0
100
AcDbLine
 62
     2
  6
CONTINUOUS
 10
522.722610135307
 20
331.605658213913
 11
525.049506987148
 21
329.582917640340
  0
LINE
  5
6DF
100
AcDbEntity
  8
0
100
AcDbLine
 62
     2
  6
CONTINUOUS
 10
526.099201433533
 20
330.790452968697
 11
524.073129943668
 21
332.551690044704
  0
ARC
  5
6E0
100
AcDbEntity
  8
0
100
AcDbCircle
 62
     2
  6
CONTINUOUS
 10
511.993932310237
 20
314.564196993907
 40
19.900000000000
100
AcDbArc
 50
20.211646768427
 51
37.342803064773
  0
ARC
  5
6E1
100
AcDbEntity
  8
0
100
AcDbCircle
 62
     2
  6
CONTINUOUS
 10
511.993932310237
 20
314.564196993907
 40
21.500000000000
100
AcDbArc
 50
20.987259971142
 51
36.781033157398
  0
ARC
  5
6E2
100
AcDbEntity
  8
0
100
AcDbCircle
 62
     2
  6
CONTINUOUS
 10
559.339401023096
 20
314.564196993907
 40
19.900000000000
100
AcDbArc
 50
164.703833630021
 51
195.296166350544
  0
ARC
  5
6E3
100
AcDbEntity
  8
0
100
AcDbCircle
 62
     2
  6
CONTINUOUS
 10
535.666666666667
 20
314.564196993907
 40
8.500000000000
100
AcDbArc
 50
306.016213370354
 51
53.983786590845
  0
ARC
  5
6E4
100
AcDbEntity
  8
0
100
AcDbCircle
 62
     2
  6
CONTINUOUS
 10
535.666666666667
 20
314.564196993907
 40
16.000000000000
100
AcDbArc
 50
303.707131497219
 51
56.292868463979
  0
ARC
  5
6E5
100
AcDbEntity
  8
0
100
AcDbCircle
 62
     2
  6
CONTINUOUS
 10
535.666666666667
 20
314.564196993907
 40
23.000000000000
100
AcDbArc
 50
308.049020121187
 51
51.950979840011
  0
ARC
  5
6E6
100
AcDbEntity
  8
0
100
AcDbCircle
 62
     2
  6
CONTINUOUS
 10
535.666666666667
 20
314.564196993907
 40
28.150000000000
100
AcDbArc
 50
310.070761764079
 51
49.929238197119
  0
ARC
  5
6E7
100
AcDbEntity
  8
0
100
AcDbCircle
 62
     2
  6
CONTINUOUS
 10
535.666666666667
 20
314.564196993907
 40
29.750000000000
100
AcDbArc
 50
310.554600472949
 51
49.445399488249
  0
ARC
  5
6E8
100
AcDbEntity
  8
0
100
AcDbCircle
 62
     2
  6
CONTINUOUS
 10
535.666666666667
 20
314.564196993907
 40
36.750000000000
100
AcDbArc
 50
312.171826527026
 51
47.828173434173
  0
LINE
  5
6E9
100
AcDbEntity
  8
0
100
AcDbLine
 62
     2
  6
CONTINUOUS
 10
565.463993850416
 20
282.872411106952
 11
564.250084437071
 21
283.927646460883
  0
LINE
  5
6EA
100
AcDbEntity
  8
0
100
AcDbLine
 62
     2
  6
CONTINUOUS
 10
569.747269448622
 20
279.149016435020
 11
565.463993850416
 21
282.872411106952
  0
ARC
  5
6EB
100
AcDbEntity
  8
0
100
AcDbCircle
 62
     2
  6
CONTINUOUS
 10
535.666666666667
 20
314.564196993907
 40
50.750000000000
100
AcDbArc
 50
314.061042066632
 51
45.938957894566
  0
LINE
  5
6EC
100
AcDbEntity
  8
0
100
AcDbLine
 62
     2
  6
CONTINUOUS
 10
575.086454997609
 20
274.507733246546
 11
570.959452437178
 21
278.095281839261
  0
LINE
  5
6ED
100
AcDbEntity
  8
0
100
AcDbLine
 62
     2
  6
CONTINUOUS
 10
576.297554403707
 20
273.454940594648
 11
575.086454997609
 21
274.507733246546
  0
LINE
  5
6EE
100
AcDbEntity
  8
0
100
AcDbLine
 62
     2
  6
CONTINUOUS
 10
579.702786138904
 20
270.494817808050
 11
577.811159346672
 21
272.139183891435
  0
LINE
  5
6EF
100
AcDbEntity
  8
0
100
AcDbLine
 62
     2
  6
CONTINUOUS
 10
577.811159346672
 20
272.139183891435
 11
576.297554403707
 21
273.454940594648
  0
ARC
  5
6F0
100
AcDbEntity
  8
0
100
AcDbCircle
 62
     2
  6
CONTINUOUS
 10
535.666666666636
 20
314.564196993938
 40
62.300000000044
100
AcDbArc
 50
313.501756829148
 51
314.978370900172
  0
LINE
  5
6F1
100
AcDbEntity
  8
0
100
AcDbLine
 62
     2
  6
CONTINUOUS
 10
585.192596531330
 20
265.722598440788
 11
580.699401915019
 21
269.628472931175
  0
ARC
  5
6F2
100
AcDbEntity
  8
0
100
AcDbCircle
 62
     2
  6
CONTINUOUS
 10
585.848655560320
 20
266.477308021011
 40
1.000000000000
100
AcDbArc
 50
228.999999987634
 51
297.214427704790
  0
LINE
  5
6F3
100
AcDbEntity
  8
0
100
AcDbLine
 62
     0
  6
CENTER2
 48
10.0
 10
588.066666666667
 20
257.533669244250
 11
588.066666666667
 21
267.438130374750
  0
LINE
  5
6F4
100
AcDbEntity
  8
0
100
AcDbLine
 62
     0
  6
CENTER2
 48
10.0
 10
583.210656721393
 20
262.164196993907
 11
593.231640924017
 21
262.164196993907
  0
ARC
  5
6F5
100
AcDbEntity
  8
0
100
AcDbCircle
 62
     2
  6
CONTINUOUS
 10
588.066666666667
 20
262.164196993907
 40
3.850000000000
100
AcDbArc
 50
154.999999991632
 51
117.214427695143
  0
LINE
  5
6F6
100
AcDbEntity
  8
0
100
AcDbLine
 62
     3
  6
CONTINUOUS
 10
583.666666666667
 20
384.564196993907
 11
583.666666666667
 21
374.564196993907
  0
LINE
  5
6F7
100
AcDbEntity
  8
0
100
AcDbLine
 62
     3
  6
CONTINUOUS
 10
487.666666666667
 20
384.564196993907
 11
487.666666666667
 21
374.564196993907
  0
LINE
  5
6F8
100
AcDbEntity
  8
0
100
AcDbLine
 62
     3
  6
HIDDEN
 48
10.0
 10
536.866666666667
 20
556.333333333333
 11
534.466666666667
 21
556.333333333333
  0
LINE
  5
6F9
100
AcDbEntity
  8
0
100
AcDbLine
 62
     3
  6
HIDDEN
 48
10.0
 10
536.866666666667
 20
556.333333333333
 11
536.866666666667
 21
526.333333333333
  0
LINE
  5
6FA
100
AcDbEntity
  8
0
100
AcDbLine
 62
     3
  6
HIDDEN
 48
10.0
 10
534.466666666667
 20
556.333333333333
 11
534.466666666667
 21
526.333333333333
  0
LINE
  5
6FB
100
AcDbEntity
  8
0
100
AcDbLine
 62
     3
  6
CONTINUOUS
 10
536.966666666667
 20
513.333333333334
 11
536.966666666667
 21
525.333333333333
  0
LINE
  5
6FC
100
AcDbEntity
  8
0
100
AcDbLine
 62
     3
  6
CONTINUOUS
 10
534.366666666667
 20
513.333333333334
 11
534.366666666667
 21
525.333333333333
  0
LINE
  5
6FD
100
AcDbEntity
  8
0
100
AcDbLine
 62
     3
  6
CONTINUOUS
 10
573.666666666667
 20
527.333333333333
 11
573.666666666667
 21
599.333333333333
  0
ARC
  5
6FE
100
AcDbEntity
  8
0
100
AcDbCircle
 62
     3
  6
CONTINUOUS
 10
571.666666666667
 20
599.333333333333
 40
2.000000000000
100
AcDbArc
 50
0.000000000000
 51
89.999999995158
  0
LINE
  5
6FF
100
AcDbEntity
  8
0
100
AcDbLine
 62
     3
  6
CONTINUOUS
 10
497.666666666667
 20
527.333333333333
 11
497.666666666667
 21
599.333333333333
  0
LINE
  5
700
100
AcDbEntity
  8
0
100
AcDbLine
 62
     3
  6
CONTINUOUS
 10
571.666666666667
 20
525.333333333333
 11
499.666666666667
 21
525.333333333333
  0
ARC
  5
701
100
AcDbEntity
  8
0
100
AcDbCircle
 62
     3
  6
CONTINUOUS
 10
571.666666666667
 20
527.333333333333
 40
2.000000000000
100
AcDbArc
 50
269.999999985475
 51
359.999999980633
  0
ARC
  5
702
100
AcDbEntity
  8
0
100
AcDbCircle
 62
     3
  6
CONTINUOUS
 10
499.666666666667
 20
527.333333333333
 40
2.000000000000
100
AcDbArc
 50
179.999999990317
 51
269.999999985475
  0
LINE
  5
703
100
AcDbEntity
  8
0
100
AcDbLine
 62
     3
  6
CONTINUOUS
 10
499.666666666667
 20
601.333333333333
 11
571.666666666667
 21
601.333333333333
  0
ARC
  5
704
100
AcDbEntity
  8
0
100
AcDbCircle
 62
     3
  6
CONTINUOUS
 10
499.666666666667
 20
599.333333333333
 40
2.000000000000
100
AcDbArc
 50
89.999999995158
 51
179.999999990317
  0
LINE
  5
705
100
AcDbEntity
  8
0
100
AcDbLine
 62
     3
  6
CONTINUOUS
 10
599.666666666667
 20
252.564196993907
 11
471.666666666667
 21
252.564196993907
  0
LINE
  5
706
100
AcDbEntity
  8
0
100
AcDbLine
 62
     3
  6
CONTINUOUS
 10
635.666666666667
 20
598.333333333333
 11
633.446666666667
 21
598.333333333333
  0
LINE
  5
707
100
AcDbEntity
  8
0
100
AcDbLine
 62
     3
  6
CONTINUOUS
 10
635.666666666667
 20
528.333333333333
 11
633.446666666667
 21
528.333333333333
  0
LINE
  5
708
100
AcDbEntity
  8
0
100
AcDbLine
 62
     3
  6
CONTINUOUS
 10
645.666666666667
 20
515.333333333333
 11
635.666666666667
 21
515.333333333333
  0
LINE
  5
709
100
AcDbEntity
  8
0
100
AcDbLine
 62
     3
  6
CONTINUOUS
 10
645.666666666667
 20
611.333333333333
 11
635.666666666667
 21
611.333333333333
  0
LINE
  5
70A
100
AcDbEntity
  8
0
100
AcDbLine
 62
     0
  6
CENTER2
 48
10.0
 10
608.776329452793
 20
314.564196993907
 11
467.190879488985
 21
314.564196993907
  0
LINE
  5
70B
100
AcDbEntity
  8
0
100
AcDbLine
 62
     0
  6
CENTER2
 48
10.0
 10
782.448935747147
 20
563.333333333333
 11
463.623820627729
 21
563.333333333333
  0
LINE
  5
70C
100
AcDbEntity
  8
0
100
AcDbLine
 62
     0
  6
CENTER2
 48
10.0
 10
533.266966807346
 20
384.784196993907
 11
538.489673397193
 21
384.784196993907
  0
LINE
  5
70D
100
AcDbEntity
  8
0
100
AcDbLine
 62
     3
  6
CONTINUOUS
 10
635.666666666667
 20
513.333333333333
 11
635.666666666667
 21
613.333333333333
  0
LINE
  5
70E
100
AcDbEntity
  8
0
100
AcDbLine
 62
     3
  6
CONTINUOUS
 10
633.446666666667
 20
600.333333333333
 11
633.446666666667
 21
526.333333333333
  0
LINE
  5
70F
100
AcDbEntity
  8
0
100
AcDbLine
 62
     3
  6
CONTINUOUS
 10
585.666666666667
 20
384.564196993907
 11
580.666666666667
 21
384.564196993907
  0
LINE
  5
710
100
AcDbEntity
  8
0
100
AcDbLine
 62
     3
  6
CONTINUOUS
 10
485.666666666667
 20
384.564196993907
 11
485.666666666667
 21
374.564196993907
  0
LINE
  5
711
100
AcDbEntity
  8
0
100
AcDbLine
 62
     3
  6
CONTINUOUS
 10
585.666666666667
 20
384.564196993907
 11
585.666666666667
 21
374.564196993907
  0
LINE
  5
712
100
AcDbEntity
  8
0
100
AcDbLine
 62
     3
  6
CONTINUOUS
 10
572.666666666667
 20
386.784196993907
 11
498.666666666667
 21
386.784196993907
  0
LINE
  5
713
100
AcDbEntity
  8
0
100
AcDbLine
 62
     3
  6
CONTINUOUS
 10
498.666666666667
 20
386.784196993907
 11
498.666666666667
 21
384.564196993907
  0
LINE
  5
714
100
AcDbEntity
  8
0
100
AcDbLine
 62
     3
  6
CONTINUOUS
 10
536.947916056910
 20
384.564196993907
 11
572.666666666667
 21
384.564196993907
  0
LINE
  5
715
100
AcDbEntity
  8
0
100
AcDbLine
 62
     3
  6
CONTINUOUS
 10
534.385417276423
 20
384.564196993907
 11
498.666666666667
 21
384.564196993907
  0
LINE
  5
716
100
AcDbEntity
  8
0
100
AcDbLine
 62
     3
  6
CONTINUOUS
 10
572.666666666667
 20
384.564196993907
 11
572.666666666667
 21
386.784196993907
  0
LINE
  5
717
100
AcDbEntity
  8
0
100
AcDbLine
 62
     3
  6
CONTINUOUS
 10
534.366666666667
 20
384.564196993907
 11
485.666666666667
 21
384.564196993907
  0
LINE
  5
718
100
AcDbEntity
  8
0
100
AcDbLine
 62
     3
  6
CONTINUOUS
 10
536.966666666667
 20
384.564196993907
 11
580.666666666667
 21
384.564196993907
  0
LINE
  5
719
100
AcDbEntity
  8
0
100
AcDbLine
 62
     3
  6
CONTINUOUS
 10
599.666666666667
 20
374.564196993907
 11
471.666666666667
 21
374.564196993907
  0
LINE
  5
71A
100
AcDbEntity
  8
0
100
AcDbLine
 62
     3
  6
CONTINUOUS
 10
473.483778814475
 20
364.564196993907
 11
475.666666666667
 21
364.564196993907
  0
LINE
  5
71B
100
AcDbEntity
  8
0
100
AcDbLine
 62
     3
  6
CONTINUOUS
 10
473.483778814475
 20
264.564196993907
 11
475.666666666667
 21
264.564196993907
  0
LINE
  5
71C
100
AcDbEntity
  8
0
100
AcDbLine
 62
     3
  6
CONTINUOUS
 10
595.483778814475
 20
264.564196993907
 11
597.666666666667
 21
264.564196993907
  0
LINE
  5
71D
100
AcDbEntity
  8
0
100
AcDbLine
 62
     3
  6
CONTINUOUS
 10
595.483778814475
 20
364.564196993907
 11
597.666666666667
 21
364.564196993907
  0
LINE
  5
71E
100
AcDbEntity
  8
0
100
AcDbLine
 62
     3
  6
CONTINUOUS
 10
471.666666666667
 20
374.564196993907
 11
475.666666666667
 21
374.564196993907
  0
LINE
  5
71F
100
AcDbEntity
  8
0
100
AcDbLine
 62
     3
  6
CONTINUOUS
 10
471.666666666667
 20
254.564196993907
 11
475.666666666667
 21
254.564196993907
  0
LINE
  5
720
100
AcDbEntity
  8
0
100
AcDbLine
 62
     3
  6
CONTINUOUS
 10
595.666666666667
 20
254.564196993907
 11
599.666666666667
 21
254.564196993907
  0
LINE
  5
721
100
AcDbEntity
  8
0
100
AcDbLine
 62
     3
  6
CONTINUOUS
 10
595.666666666667
 20
374.564196993907
 11
599.666666666667
 21
374.564196993907
  0
LINE
  5
722
100
AcDbEntity
  8
0
100
AcDbLine
 62
     3
  6
CONTINUOUS
 10
473.666666666667
 20
374.564196993907
 11
473.666666666667
 21
254.564196993907
  0
LINE
  5
723
100
AcDbEntity
  8
0
100
AcDbLine
 62
     3
  6
CONTINUOUS
 10
597.666666666667
 20
254.564196993907
 11
597.666666666667
 21
374.564196993907
  0
LINE
  5
724
100
AcDbEntity
  8
0
100
AcDbLine
 62
     3
  6
CONTINUOUS
 10
471.666666666667
 20
252.564196993907
 11
471.666666666667
 21
374.564196993907
  0
LINE
  5
725
100
AcDbEntity
  8
0
100
AcDbLine
 62
     3
  6
CONTINUOUS
 10
599.666666666667
 20
252.564196993907
 11
599.666666666667
 21
374.564196993907
  0
LINE
  5
726
100
AcDbEntity
  8
0
100
AcDbLine
 62
     3
  6
CONTINUOUS
 10
475.666666666667
 20
374.564196993907
 11
475.666666666667
 21
254.564196993907
  0
LINE
  5
727
100
AcDbEntity
  8
0
100
AcDbLine
 62
     3
  6
CONTINUOUS
 10
475.666666666667
 20
254.564196993907
 11
595.666666666667
 21
254.564196993907
  0
LINE
  5
728
100
AcDbEntity
  8
0
100
AcDbLine
 62
     3
  6
CONTINUOUS
 10
595.666666666667
 20
254.564196993907
 11
595.666666666667
 21
374.564196993907
  0
LINE
  5
729
100
AcDbEntity
  8
0
100
AcDbLine
 62
     3
  6
CONTINUOUS
 10
765.666666666667
 20
627.333333333333
 11
645.666666666667
 21
627.333333333333
  0
LINE
  5
72A
100
AcDbEntity
  8
0
100
AcDbLine
 62
     3
  6
CONTINUOUS
 10
645.666666666667
 20
627.333333333333
 11
645.666666666667
 21
499.333333333333
  0
LINE
  5
72B
100
AcDbEntity
  8
0
100
AcDbLine
 62
     3
  6
CONTINUOUS
 10
645.666666666667
 20
499.333333333333
 11
765.666666666667
 21
499.333333333333
  0
LINE
  5
72C
100
AcDbEntity
  8
0
100
AcDbLine
 62
     3
  6
CONTINUOUS
 10
765.666666666667
 20
499.333333333333
 11
765.666666666667
 21
627.333333333333
  0
LINE
  5
72D
100
AcDbEntity
  8
0
100
AcDbLine
 62
     3
  6
CONTINUOUS
 10
595.666666666667
 20
499.333333333333
 11
475.666666666667
 21
499.333333333333
  0
LINE
  5
72E
100
AcDbEntity
  8
0
100
AcDbLine
 62
     3
  6
CONTINUOUS
 10
473.666666666667
 20
627.333333333333
 11
473.666666666667
 21
499.333333333333
  0
LINE
  5
72F
100
AcDbEntity
  8
0
100
AcDbLine
 62
     3
  6
CONTINUOUS
 10
597.666666666667
 20
499.333333333333
 11
597.666666666667
 21
627.333333333333
  0
POINT
  5
730
100
AcDbEntity
  8
0
100
AcDbPoint
 62
     6
  6
CONTINUOUS
 10
560.666666666667
 20
588.333333333333
  0
LINE
  5
731
100
AcDbEntity
  8
0
100
AcDbLine
 62
     0
  6
CENTER2
 48
10.0
 10
555.810656721393
 20
588.333333333333
 11
565.831640924017
 21
588.333333333333
  0
LINE
  5
732
100
AcDbEntity
  8
0
100
AcDbLine
 62
     0
  6
CENTER2
 48
10.0
 10
560.666666666667
 20
583.702805583676
 11
560.666666666667
 21
593.607266714176
  0
LINE
  5
733
100
AcDbEntity
  8
0
100
AcDbLine
 62
     3
  6
CONTINUOUS
 10
599.666666666667
 20
627.333333333333
 11
471.666666666667
 21
627.333333333333
  0
LINE
  5
734
100
AcDbEntity
  8
0
100
AcDbLine
 62
     3
  6
CONTINUOUS
 10
471.666666666667
 20
627.333333333333
 11
471.666666666667
 21
499.333333333333
  0
LINE
  5
735
100
AcDbEntity
  8
0
100
AcDbLine
 62
     3
  6
CONTINUOUS
 10
599.666666666667
 20
499.333333333333
 11
471.666666666667
 21
499.333333333333
  0
LINE
  5
736
100
AcDbEntity
  8
0
100
AcDbLine
 62
     3
  6
CONTINUOUS
 10
599.666666666667
 20
499.333333333333
 11
599.666666666667
 21
627.333333333333
  0
LINE
  5
737
100
AcDbEntity
  8
0
100
AcDbLine
 62
     3
  6
CONTINUOUS
 10
583.666666666667
 20
613.333333333333
 11
487.666666666667
 21
613.333333333333
  0
LINE
  5
738
100
AcDbEntity
  8
0
100
AcDbLine
 62
     3
  6
CONTINUOUS
 10
645.666666666667
 20
613.333333333333
 11
635.666666666667
 21
613.333333333333
  0
LINE
  5
739
100
AcDbEntity
  8
0
100
AcDbLine
 62
     3
  6
CONTINUOUS
 10
485.666666666667
 20
515.333333333333
 11
485.666666666667
 21
611.333333333333
  0
LINE
  5
73A
100
AcDbEntity
  8
0
100
AcDbLine
 62
     3
  6
CONTINUOUS
 10
485.666666666667
 20
515.333333333333
 11
487.666666666667
 21
513.333333333333
  0
LINE
  5
73B
100
AcDbEntity
  8
0
100
AcDbLine
 62
     3
  6
CONTINUOUS
 10
485.666666666667
 20
611.333333333333
 11
487.666666666667
 21
613.333333333333
  0
LINE
  5
73C
100
AcDbEntity
  8
0
100
AcDbLine
 62
     3
  6
CONTINUOUS
 10
583.666666666667
 20
513.333333333334
 11
487.666666666666
 21
513.333333333334
  0
LINE
  5
73D
100
AcDbEntity
  8
0
100
AcDbLine
 62
     3
  6
CONTINUOUS
 10
645.666666666667
 20
513.333333333333
 11
635.666666666667
 21
513.333333333333
  0
LINE
  5
73E
100
AcDbEntity
  8
0
100
AcDbLine
 62
     3
  6
CONTINUOUS
 10
583.666666666667
 20
513.333333333333
 11
585.666666666667
 21
515.333333333333
  0
LINE
  5
73F
100
AcDbEntity
  8
0
100
AcDbLine
 62
     3
  6
CONTINUOUS
 10
585.666666666667
 20
611.333333333333
 11
585.666666666667
 21
515.333333333333
  0
LINE
  5
740
100
AcDbEntity
  8
0
100
AcDbLine
 62
     3
  6
CONTINUOUS
 10
585.666666666667
 20
611.333333333333
 11
583.666666666667
 21
613.333333333333
  0
LINE
  5
741
100
AcDbEntity
  8
0
100
AcDbLine
 62
     3
  6
CONTINUOUS
 10
570.666666666667
 20
600.333333333333
 11
500.666666666667
 21
600.333333333333
  0
ARC
  5
742
100
AcDbEntity
  8
0
100
AcDbCircle
 62
     3
  6
CONTINUOUS
 10
500.666666666667
 20
598.333333333333
 40
2.000000000000
100
AcDbArc
 50
89.999999995158
 51
179.999999990317
  0
LINE
  5
743
100
AcDbEntity
  8
0
100
AcDbLine
 62
     3
  6
CONTINUOUS
 10
635.666666666667
 20
600.333333333333
 11
633.446666666667
 21
600.333333333333
  0
LINE
  5
744
100
AcDbEntity
  8
0
100
AcDbLine
 62
     3
  6
CONTINUOUS
 10
498.666666666667
 20
528.333333333333
 11
498.666666666667
 21
598.333333333333
  0
ARC
  5
745
100
AcDbEntity
  8
0
100
AcDbCircle
 62
     3
  6
CONTINUOUS
 10
500.666666666667
 20
528.333333333333
 40
2.000000000000
100
AcDbArc
 50
179.999999990317
 51
269.999999985475
  0
LINE
  5
746
100
AcDbEntity
  8
0
100
AcDbLine
 62
     3
  6
CONTINUOUS
 10
570.666666666667
 20
526.333333333333
 11
500.666666666667
 21
526.333333333333
  0
ARC
  5
747
100
AcDbEntity
  8
0
100
AcDbCircle
 62
     3
  6
CONTINUOUS
 10
570.666666666667
 20
528.333333333333
 40
2.000000000000
100
AcDbArc
 50
269.999999985475
 51
359.999999980633
  0
LINE
  5
748
100
AcDbEntity
  8
0
100
AcDbLine
 62
     3
  6
CONTINUOUS
 10
635.666666666667
 20
526.333333333333
 11
633.446666666667
 21
526.333333333333
  0
LINE
  5
749
100
AcDbEntity
  8
0
100
AcDbLine
 62
     3
  6
CONTINUOUS
 10
572.666666666667
 20
598.333333333333
 11
572.666666666667
 21
528.333333333333
  0
ARC
  5
74A
100
AcDbEntity
  8
0
100
AcDbCircle
 62
     3
  6
CONTINUOUS
 10
570.666666666667
 20
598.333333333333
 40
2.000000000000
100
AcDbArc
 50
0.000000000000
 51
89.999999995158
  0
POINT
  5
74B
100
AcDbEntity
  8
0
100
AcDbPoint
 62
     6
  6
CONTINUOUS
 10
560.666666666667
 20
588.333333333333
  0
POINT
  5
74C
100
AcDbEntity
  8
0
100
AcDbPoint
 62
     6
  6
CONTINUOUS
 10
588.066666666667
 20
499.333333333333
  0
POINT
  5
74D
100
AcDbEntity
  8
0
100
AcDbPoint
 62
     6
  6
CONTINUOUS
 10
483.266666666667
 20
499.333333333333
  0
POINT
  5
74E
100
AcDbEntity
  8
0
100
AcDbPoint
 62
     6
  6
CONTINUOUS
 10
595.666666666667
 20
364.564196993907
  0
POINT
  5
74F
100
AcDbEntity
  8
0
100
AcDbPoint
 62
     6
  6
CONTINUOUS
 10
595.666666666667
 20
264.564196993907
  0
POINT
  5
750
100
AcDbEntity
  8
0
100
AcDbPoint
 62
     6
  6
CONTINUOUS
 10
475.666666666667
 20
264.564196993907
  0
POINT
  5
751
100
AcDbEntity
  8
0
100
AcDbPoint
 62
     6
  6
CONTINUOUS
 10
475.666666666667
 20
364.564196993907
  0
ENDSEC
  0
SECTION
  2
OBJECTS
  0
DICTIONARY
  5
C
100
AcDbDictionary
  3
ACAD_GROUP
350
D
  3
ACAD_MLINESTYLE
350
E
  0
DICTIONARY
  5
D
102
{ACAD_REACTORS
330
C
102
}
100
AcDbDictionary
  0
DICTIONARY
  5
E
102
{ACAD_REACTORS
330
C
102
}
100
AcDbDictionary
  3
STANDARD
350
1C
  0
MLINESTYLE
  5
1C
102
{ACAD_REACTORS
330
E
102
}
100
AcDbMlineStyle
  2
STANDARD
 70
     0
  3

 62
     0
 51
90.0
 52
90.0
 71
     2
 49
0.5
 62
   256
  6
BYLAYER
 49
-0.5
 62
   256
  6
BYLAYER
  0
ENDSEC
  0
EOF
