  0
SECTION
  2
HEADER
  9
$ACADVER
  1
AC1012
  9
$DWGCODEPAGE
  3
dos932
  9
$INSBASE
 10
0.0
 20
0.0
 30
0.0
  9
$EXTMIN
 10
0.0000
 20
0.0000
 30
0.0000
  9
$EXTMAX
 10
1188.0000
 20
840.0000
 30
1800.000
  9
$LIMMIN
 10
0.0000
 20
0.0000
  9
$LIMMAX
 10
1188.0000
 20
840.0000
  9
$ORTHOMODE
 70
     0
  9
$REGENMODE
 70
     1
  9
$FILLMODE
 70
     1
  9
$QTEXTMODE
 70
     0
  9
$MIRRTEXT
 70
     1
  9
$DRAGMODE
 70
     2
  9
$LTSCALE
 40
1.0000
  9
$OSMODE
 70
     0
  9
$ATTMODE
 70
     1
  9
$TEXTSIZE
 40
3.5000
  9
$TRACEWID
 40
0.05
  9
$TEXTSTYLE
  7
STANDARD
  9
$CLAYER
  8
0
  9
$CELTYPE
  6
CONTINUOUS
  9
$CECOLOR
 62
   256
  9
$CELTSCALE
 40
10.0
  9
$DELOBJ
 70
     1
  9
$DISPSILH
 70
     0
  9
$DIMSCALE
 40
1.0000
  9
$DIMASZ
 40
3.0000
  9
$DIMEXO
 40
1.0000
  9
$DIMDLI
 40
3.0
  9
$DIMRND
 40
0.0
  9
$DIMDLE
 40
0.0
  9
$DIMEXE
 40
1.0000
  9
$DIMTP
 40
0.0
  9
$DIMTM
 40
0.0
  9
$DIMTXT
 40
3.0000
  9
$DIMCEN
 40
0.0
  9
$DIMTSZ
 40
0.0
  9
$DIMTOL
 70
     0
  9
$DIMLIM
 70
     0
  9
$DIMTIH
 70
     0
  9
$DIMTOH
 70
     0
  9
$DIMSE1
 70
     0
  9
$DIMSE2
 70
     0
  9
$DIMTAD
 70
     1
  9
$DIMZIN
 70
     8
  9
$DIMBLK
  1
_OPEN
  9
$DIMASO
 70
     1
  9
$DIMSHO
 70
     1
  9
$DIMPOST
  1

  9
$DIMAPOST
  1

  9
$DIMALT
 70
     0
  9
$DIMALTD
 70
     2
  9
$DIMALTF
 40
0.03937
  9
$DIMLFAC
 40
1.0
  9
$DIMTOFL
 70
     1
  9
$DIMTVP
 40
0.75
  9
$DIMTIX
 70
     0
  9
$DIMSOXD
 70
     0
  9
$DIMSAH
 70
     1
  9
$DIMBLK1
  1
_OPEN
  9
$DIMBLK2
  1
_OPEN
  9
$DIMSTYLE
  2
DIM1
  9
$DIMCLRD
 70
     3
  9
$DIMCLRE
 70
     3
  9
$DIMCLRT
 70
     0
  9
$DIMTFAC
 40
1.0000
  9
$DIMGAP
 40
1.5000
  9
$DIMJUST
 70
     0
  9
$DIMSD1
 70
     0
  9
$DIMSD2
 70
     0
  9
$DIMTOLJ
 70
     1
  9
$DIMTZIN
 70
     8
  9
$DIMALTZ
 70
     0
  9
$DIMALTTZ
 70
     0
  9
$DIMFIT
 70
     3
  9
$DIMUPT
 70
     1
  9
$DIMUNIT
 70
     2
  9
$DIMDEC
 70
     4
  9
$DIMTDEC
 70
     4
  9
$DIMALTU
 70
     2
  9
$DIMALTTD
 70
     2
  9
$DIMTXSTY
  7
STANDARD
  9
$DIMAUNIT
 70
     0
  9
$LUNITS
 70
     2
  9
$LUPREC
 70
     4
  9
$SKETCHINC
 40
0.1
  9
$FILLETRAD
 40
10.0
  9
$AUNITS
 70
     0
  9
$AUPREC
 70
     0
  9
$MENU
  1
acad
  9
$ELEVATION
 40
0.0
  9
$PELEVATION
 40
0.0
  9
$THICKNESS
 40
0.0
  9
$LIMCHECK
 70
     0
  9
$BLIPMODE
 70
     1
  9
$CHAMFERA
 40
10.0
  9
$CHAMFERB
 40
10.0
  9
$CHAMFERC
 40
20.0
  9
$CHAMFERD
 40
0.0
  9
$SKPOLY
 70
     0
  9
$TDCREATE
 40
2450901.470568402
  9
$TDUPDATE
 40
2450901.470568402
  9
$TDINDWG
 40
0.0000000000
  9
$TDUSRTIMER
 40
0.0000000000
  9
$USRTIMER
 70
     1
  9
$ANGBASE
 50
0.0
  9
$ANGDIR
 70
     0
  9
$PDMODE
 70
     0
  9
$PDSIZE
 40
0.0
  9
$PLINEWID
 40
0.0
  9
$COORDS
 70
     1
  9
$SPLFRAME
 70
     0
  9
$SPLINETYPE
 70
     6
  9
$SPLINESEGS
 70
     8
  9
$ATTDIA
 70
     0
  9
$ATTREQ
 70
     1
  9
$HANDLING
 70
     1
  9
$HANDSEED
  5
1000
  9
$SURFTAB1
 70
     6
  9
$SURFTAB2
 70
     6
  9
$SURFTYPE
 70
     6
  9
$SURFU
 70
     6
  9
$SURFV
 70
     6
  9
$UCSNAME
  2

  9
$UCSORG
 10
0.0
 20
0.0
 30
0.0
  9
$UCSXDIR
 10
1.0
 20
0.0
 30
0.0
  9
$UCSYDIR
 10
0.0
 20
1.0
 30
0.0
  9
$PUCSNAME
  2

  9
$PUCSORG
 10
0.0
 20
0.0
 30
0.0
  9
$PUCSXDIR
 10
1.0
 20
0.0
 30
0.0
  9
$PUCSYDIR
 10
0.0
 20
1.0
 30
0.0
  9
$USERI1
 70
     0
  9
$USERI2
 70
     0
  9
$USERI3
 70
     0
  9
$USERI4
 70
     0
  9
$USERI5
 70
     0
  9
$USERR1
 40
0.0
  9
$USERR2
 40
0.0
  9
$USERR3
 40
0.0
  9
$USERR4
 40
0.0
  9
$USERR5
 40
0.0
  9
$WORLDVIEW
 70
     1
  9
$SHADEDGE
 70
     3
  9
$SHADEDIF
 70
    70
  9
$TILEMODE
 70
     1
  9
$MAXACTVP
 70
    16
  9
$PINSBASE
 10
0.0
 20
0.0
 30
0.0
  9
$PLIMCHECK
 70
     0
  9
$PEXTMIN
 10
0.000000
 20
0.000000
 30
0.000000
  9
$PEXTMAX
 10
1800.0000
 20
1800.0000
 30
1800.0000
  9
$PLIMMIN
 10
0.0000
 20
0.0000
  9
$PLIMMAX
 10
1188.0000
 20
840.0000
  9
$UNITMODE
 70
     0
  9
$VISRETAIN
 70
     0
  9
$PLINEGEN
 70
     0
  9
$PSLTSCALE
 70
     1
  9
$TREEDEPTH
 70
  3020
  9
$PICKSTYLE
 70
     1
  9
$CMLSTYLE
  2
STANDARD
  9
$CMLJUST
 70
     0
  9
$CMLSCALE
 40
1.0
  9
$SAVEIMAGES
 70
     0
  0
ENDSEC
  0
SECTION
  2
CLASSES
  0
ENDSEC
  0
SECTION
  2
TABLES
  0
TABLE
  2
VPORT
  5
8
100
AcDbSymbolTable
 70
     2
  0
VPORT
  5
1F
100
AcDbSymbolTableRecord
100
AcDbViewportTableRecord
  2
*ACTIVE
 70
     0
 10
0.0
 20
0.0
 11
1.0
 21
1.0
 12
203.3102
 22
105.0
 13
0.0
 23
0.0
 14
10.0
 24
10.0
 15
10.0
 25
10.0
 16
0.0
 26
0.0
 36
1.0
 17
0.0
 27
0.0
 37
0.0
 40
210.0
 41
1.9363
 42
50.0
 43
0.0
 44
0.0
 50
0.0
 51
0.0
 71
     0
 72
   100
 73
     1
 74
     0
 75
     0
 76
     0
 77
     0
 78
     0
  0
ENDTAB
  0
TABLE
  2
LTYPE
  5
12D
100
AcDbSymbolTable
 70
     4
  0
LTYPE
  5
14
100
AcDbSymbolTableRecord
100
AcDbLinetypeTableRecord
  2
BYBLOCK
 70
     0
  3

 72
    65
 73
     0
 40
0.0
  0
LTYPE
  5
15
100
AcDbSymbolTableRecord
100
AcDbLinetypeTableRecord
  2
BYLAYER
 70
     0
  3

 72
    65
 73
     0
 40
0.0
  0
LTYPE
  5
92
100
AcDbSymbolTableRecord
100
AcDbLinetypeTableRecord
  2
CONTINUOUS
 70
     0
  3
Solid line
 72
    65
 73
     0
 40
0.0
  0
LTYPE
  5
97
100
AcDbSymbolTableRecord
100
AcDbLinetypeTableRecord
  2
CENTER2
 70
    64
  3
___ _ ___ _ ___ _ ___ _ ___ _ ___ _ ___ _ ___ _
 72
    65
 73
     4
 40
1.125
 49
0.75
 74
     0
 49
-0.125
 74
     0
 49
0.125
 74
     0
 49
-0.125
 74
     0
  0
LTYPE
  5
A5
100
AcDbSymbolTableRecord
100
AcDbLinetypeTableRecord
  2
HIDDEN
 70
    64
  3
__ __ __ __ __ __ __ __ __ __ __ __ __ __ __ __
 72
    65
 73
     2
 40
0.375
 49
0.25
 74
     0
 49
-0.125
 74
     0
  0
LTYPE
  5
A9
100
AcDbSymbolTableRecord
100
AcDbLinetypeTableRecord
  2
PHANTOM2
 70
    64
  3
___ _ _ ___ _ _ ___ _ _ ___ _ _ ___ _ _ ___ _ _
 72
    65
 73
     6
 40
1.25
 49
0.625
 74
     0
 49
-0.125
 74
     0
 49
0.125
 74
     0
 49
-0.125
 74
     0
 49
0.125
 74
     0
 49
-0.125
 74
     0
  0
ENDTAB
  0
TABLE
  2
LAYER
  5
12E
100
AcDbSymbolTable
 70
     1
  0
LAYER
  5
12F
100
AcDbSymbolTableRecord
100
AcDbLayerTableRecord
  2
0
 70
    64
 62
     7
  6
CONTINUOUS
  0
ENDTAB
  0
TABLE
  2
STYLE
  5
3
100
AcDbSymbolTable
 70
     1
  0
STYLE
  5
10
100
AcDbSymbolTableRecord
100
AcDbTextStyleTableRecord
  2
STANDARD
 70
     0
 40
0.0
 41
0.8
 50
0.0
 71
     0
 42
3.5000
  3
simplex
  4
extfont
  0
ENDTAB
  0
TABLE
  2
VIEW
  5
6
100
AcDbSymbolTable
 70
     0
  0
ENDTAB
  0
TABLE
  2
UCS
  5
7
100
AcDbSymbolTable
 70
     0
  0
ENDTAB
  0
TABLE
  2
APPID
  5
9
100
AcDbSymbolTable
 70
     1
  0
APPID
  5
11
100
AcDbSymbolTableRecord
100
AcDbRegAppTableRecord
  2
ACAD
 70
     0
  0
ENDTAB
  0
TABLE
  2
DIMSTYLE
  5
A
100
AcDbSymbolTable
 70
     1
  0
DIMSTYLE
105
1D
100
AcDbSymbolTableRecord
100
AcDbDimStyleTableRecord
  2
DIM1
 70
     0
  3

  4

  5
_OPEN
  6
_OPEN
  7
_OPEN
 40
1.0000
 41
3.0000
 42
1.0000
 43
30.0
 44
1.0000
 45
0.0
 46
0.0
 47
0.0
 48
0.0
140
3.0000
141
0.0
142
0.0
143
25.4
144
1.0
145
0.0
146
1.0000
147
1.5000
 71
     0
 72
     0
 73
     0
 74
     0
 75
     0
 76
     0
 77
     1
 78
     8
170
     0
171
     2
172
     1
173
     1
174
     0
175
     0
176
     3
177
     3
178
     0
270
     2
271
     4
272
     4
273
     2
274
     2
340
10
275
     0
280
     0
281
     0
282
     0
283
     1
284
     8
285
     0
286
     0
287
    3
288
     1
  0
ENDTAB
  0
TABLE
  2
BLOCK_RECORD
  5
1
100
AcDbSymbolTable
 70
     9
  0
BLOCK_RECORD
  5
19
100
AcDbSymbolTableRecord
100
AcDbBlockTableRecord
  2
*MODEL_SPACE
  0
BLOCK_RECORD
  5
16
100
AcDbSymbolTableRecord
100
AcDbBlockTableRecord
  2
*PAPER_SPACE
  0
BLOCK_RECORD
  5
C0
100
AcDbSymbolTableRecord
100
AcDbBlockTableRecord
  2
_OPEN
  0
BLOCK_RECORD
  5
C1
100
AcDbSymbolTableRecord
100
AcDbBlockTableRecord
  2
_ORIGIN
  0
BLOCK_RECORD
  5
C2
100
AcDbSymbolTableRecord
100
AcDbBlockTableRecord
  2
_OBLIQUE
  0
BLOCK_RECORD
  5
C3
100
AcDbSymbolTableRecord
100
AcDbBlockTableRecord
  2
_NONE
  0
BLOCK_RECORD
  5
C4
100
AcDbSymbolTableRecord
100
AcDbBlockTableRecord
  2
_DOT
  0
BLOCK_RECORD
  5
130
100
AcDbSymbolTableRecord
100
AcDbBlockTableRecord
  2
*D0
  0
BLOCK_RECORD
  5
131
100
AcDbSymbolTableRecord
100
AcDbBlockTableRecord
  2
*D1
  0
BLOCK_RECORD
  5
132
100
AcDbSymbolTableRecord
100
AcDbBlockTableRecord
  2
*D2
  0
BLOCK_RECORD
  5
133
100
AcDbSymbolTableRecord
100
AcDbBlockTableRecord
  2
*D3
  0
ENDTAB
  0
ENDSEC
  0
SECTION
  2
BLOCKS
  0
BLOCK
  5
1A
100
AcDbEntity
  8
0
100
AcDbBlockBegin
  2
*MODEL_SPACE
 70
     0
 10
0.0
 20
0.0
 30
0.0
  3
*MODEL_SPACE
  1

  0
ENDBLK
  5
1B
100
AcDbEntity
  8
0
100
AcDbBlockEnd
  0
BLOCK
  5
17
100
AcDbEntity
 67
     1
  8
0
100
AcDbBlockBegin
  2
*PAPER_SPACE
 70
     0
 10
0.0
 20
0.0
 30
0.0
  3
*PAPER_SPACE
  1

  0
ENDBLK
  5
18
100
AcDbEntity
 67
     1
  8
0
100
AcDbBlockEnd
  0
BLOCK
  5
2B
100
AcDbEntity
  8
0
100
AcDbBlockBegin
  2
_OPEN
 70
    64
 10
0.0
 20
0.0
 30
0.0
  3
_OPEN
  1

  0
LINE
  5
2C
100
AcDbEntity
  8
0
  6
BYBLOCK
 62
     0
100
AcDbLine
 10
-1.0
 20
0.1667
 30
0.0
 11
0.0
 21
0.0
 31
0.0
  0
LINE
  5
2D
100
AcDbEntity
  8
0
  6
BYBLOCK
 62
     0
100
AcDbLine
 10
0.0
 20
0.0
 30
0.0
 11
-1.0
 21
-0.1667
 31
0.0
  0
LINE
  5
2E
100
AcDbEntity
  8
0
  6
BYBLOCK
 62
     0
100
AcDbLine
 10
0.0
 20
0.0
 30
0.0
 11
-1.0
 21
0.0
 31
0.0
  0
ENDBLK
  5
2F
100
AcDbEntity
  8
0
100
AcDbBlockEnd
  0
BLOCK
  5
C5
100
AcDbEntity
  8
0
100
AcDbBlockBegin
  2
_ORIGIN
 70
     0
 10
0.0
 20
0.0
 30
0.0
  3
_ORIGIN
  1

  0
CIRCLE
  5
C6
100
AcDbEntity
  8
0
  6
BYBLOCK
 62
     0
100
AcDbCircle
 10
0.0
 20
0.0
 30
0.0
 40
0.5
  0
LINE
  5
C7
100
AcDbEntity
  8
0
  6
BYBLOCK
 62
     0
100
AcDbLine
 10
0.0
 20
0.0
 30
0.0
 11
-1.0
 21
0.0
 31
0.0
  0
ENDBLK
  5
C8
100
AcDbEntity
  8
0
100
AcDbBlockEnd
  0
BLOCK
  5
C9
100
AcDbEntity
  8
0
100
AcDbBlockBegin
  2
_DOT
 70
     0
 10
0.0
 20
0.0
 30
0.0
  3
_DOT
  1

  0
POLYLINE
  5
CA
100
AcDbEntity
  8
0
  6
BYBLOCK
 62
     0
100
AcDb2dPolyline
 66
     1
 10
0.0
 20
0.0
 30
0.0
 70
     1
 40
0.5
 41
0.5
  0
VERTEX
  5
CB
100
AcDbEntity
  8
0
  6
BYBLOCK
 62
     0
100
AcDbVertex
100
AcDb2dVertex
 10
-0.25
 20
0.0
 30
0.0
 42
1.0
  0
VERTEX
  5
CC
100
AcDbEntity
  8
0
  6
BYBLOCK
 62
     0
100
AcDbVertex
100
AcDb2dVertex
 10
0.25
 20
0.0
 30
0.0
 42
1.0
  0
SEQEND
  5
CD
100
AcDbEntity
  8
0
  6
BYBLOCK
 62
     0
  0
LINE
  5
CE
100
AcDbEntity
  8
0
  6
BYBLOCK
 62
     0
100
AcDbLine
 10
-0.5
 20
0.0
 30
0.0
 11
-1.0
 21
0.0
 31
0.0
  0
ENDBLK
  5
CF
100
AcDbEntity
  8
0
100
AcDbBlockEnd
  0
BLOCK
  5
D0
100
AcDbEntity
  8
0
100
AcDbBlockBegin
  2
_OBLIQUE
 70
     0
 10
0.0
 20
0.0
 30
0.0
  3
_OBLIQUE
  1

  0
LINE
  5
E0
100
AcDbEntity
  8
0
  6
BYBLOCK
 62
     0
100
AcDbLine
 10
-0.5
 20
-0.5
 30
0.0
 11
0.5
 21
0.5
 31
0.0
  0
ENDBLK
  5
E1
100
AcDbEntity
  8
0
100
AcDbBlockEnd
  0
BLOCK
  5
E2
100
AcDbEntity
  8
0
100
AcDbBlockBegin
  2
_NONE
 70
     0
 10
0.0
 20
0.0
 30
0.0
  3
_NONE
  1

  0
CIRCLE
  5
E3
100
AcDbEntity
  8
0
  6
BYBLOCK
 62
     0
100
AcDbCircle
 10
0.0
 20
0.0
 30
0.0
 40
0.25
  0
ENDBLK
  5
E4
100
AcDbEntity
  8
0
100
AcDbBlockEnd
  0
BLOCK
  5
134
100
AcDbEntity
  8
0
100
AcDbBlockBegin
  2
*D0
 70
    65
 10
0.0
 20
0.0
  0
MTEXT
  5
135
100
AcDbEntity
  8
0
100
AcDbMText
 62
     0
  6
CONTINUOUS
 10
607.699129501581
 20
495.591250029206
 40
3.000000000000
 41
0.000000000000
 71
     5
 72
     1
  1
\A1;3.82{\H3.00;\S ^ %%p0.1;}
  0
LINE
  5
136
100
AcDbEntity
  8
0
100
AcDbLine
 62
     3
  6
CONTINUOUS
 10
583.731912985983
 20
490.641250029206
 11
618.709129501581
 21
490.641250029206
  0
INSERT
  5
137
100
AcDbEntity
  8
0
100
AcDbBlockReference
 62
     3
  6
CONTINUOUS
  2
_OPEN
 10
588.231913
 20
490.641250
 41
3.000000
 42
3.000000
 50
0.000000
  0
INSERT
  5
138
100
AcDbEntity
  8
0
100
AcDbBlockReference
 62
     3
  6
CONTINUOUS
  2
_OPEN
 10
592.051913
 20
490.641250
 41
3.000000
 42
3.000000
 50
180.000000
  0
LINE
  5
139
100
AcDbEntity
  8
0
100
AcDbLine
 62
     3
  6
CONTINUOUS
 10
588.231912985983
 20
484.529829657187
 11
588.231912985983
 21
491.641250029206
  0
LINE
  5
13A
100
AcDbEntity
  8
0
100
AcDbLine
 62
     3
  6
CONTINUOUS
 10
592.051912985983
 20
484.529829657187
 11
592.051912985983
 21
491.641250029206
  0
ENDBLK
  5
13B
100
AcDbEntity
  8
0
100
AcDbBlockEnd
  0
BLOCK
  5
13C
100
AcDbEntity
  8
0
100
AcDbBlockBegin
  2
*D1
 70
    65
 10
0.0
 20
0.0
  0
MTEXT
  5
13D
100
AcDbEntity
  8
0
100
AcDbMText
 62
     0
  6
CONTINUOUS
 10
529.607276706625
 20
433.342789381238
 40
3.000000000000
 41
0.000000000000
 71
     5
 72
     1
  1
\A1;(16.2)
  0
LINE
  5
13E
100
AcDbEntity
  8
0
100
AcDbLine
 62
     3
  6
CONTINUOUS
 10
519.977278374649
 20
430.342789381238
 11
545.177275038600
 21
430.342789381238
  0
INSERT
  5
13F
100
AcDbEntity
  8
0
100
AcDbBlockReference
 62
     3
  6
CONTINUOUS
  2
_OPEN
 10
540.677275
 20
430.342789
 41
3.000000
 42
3.000000
 50
180.000000
  0
INSERT
  5
140
100
AcDbEntity
  8
0
100
AcDbBlockReference
 62
     3
  6
CONTINUOUS
  2
_OPEN
 10
524.477278
 20
430.342789
 41
3.000000
 42
3.000000
 50
0.000000
  0
LINE
  5
141
100
AcDbEntity
  8
0
100
AcDbLine
 62
     3
  6
CONTINUOUS
 10
524.477278374649
 20
441.265259556667
 11
524.477278374649
 21
429.342789381238
  0
LINE
  5
142
100
AcDbEntity
  8
0
100
AcDbLine
 62
     3
  6
CONTINUOUS
 10
540.677275038600
 20
441.266604546560
 11
540.677275038600
 21
429.342789381238
  0
ENDBLK
  5
143
100
AcDbEntity
  8
0
100
AcDbBlockEnd
  0
BLOCK
  5
144
100
AcDbEntity
  8
0
100
AcDbBlockBegin
  2
*D2
 70
    65
 10
0.0
 20
0.0
  0
MTEXT
  5
145
100
AcDbEntity
  8
0
100
AcDbMText
 62
     0
  6
CONTINUOUS
 10
510.946813315153
 20
470.549830216720
 40
3.000000000000
 41
0.000000000000
 71
     5
 72
     1
 11
0.000000000000
 21
1.000000000000
  1
\A1;(22)
  0
LINE
  5
146
100
AcDbEntity
  8
0
100
AcDbLine
 62
     3
  6
CONTINUOUS
 10
513.946813315153
 20
461.529830216720
 11
513.946813315153
 21
483.529830216720
  0
INSERT
  5
147
100
AcDbEntity
  8
0
100
AcDbBlockReference
 62
     3
  6
CONTINUOUS
  2
_OPEN
 10
513.946813
 20
461.529830
 41
3.000000
 42
3.000000
 50
270.000000
  0
INSERT
  5
148
100
AcDbEntity
  8
0
100
AcDbBlockReference
 62
     3
  6
CONTINUOUS
  2
_OPEN
 10
513.946813
 20
483.529830
 41
3.000000
 42
3.000000
 50
90.000000
  0
LINE
  5
149
100
AcDbEntity
  8
0
100
AcDbLine
 62
     3
  6
CONTINUOUS
 10
520.577276281070
 20
461.529830216720
 11
512.946813315153
 21
461.529830216720
  0
LINE
  5
14A
100
AcDbEntity
  8
0
100
AcDbLine
 62
     3
  6
CONTINUOUS
 10
520.577276281070
 20
483.529830216720
 11
512.946813315153
 21
483.529830216720
  0
ENDBLK
  5
14B
100
AcDbEntity
  8
0
100
AcDbBlockEnd
  0
BLOCK
  5
14C
100
AcDbEntity
  8
0
100
AcDbBlockBegin
  2
*D3
 70
    65
 10
0.0
 20
0.0
  0
MTEXT
  5
14D
100
AcDbEntity
  8
0
100
AcDbMText
 62
     0
  6
CONTINUOUS
 10
530.597276281070
 20
493.641250029206
 40
3.000000000000
 41
0.000000000000
 71
     5
 72
     1
  1
\A1;(22)
  0
LINE
  5
14E
100
AcDbEntity
  8
0
100
AcDbLine
 62
     3
  6
CONTINUOUS
 10
521.577276281070
 20
490.641250029206
 11
543.577276281070
 21
490.641250029206
  0
INSERT
  5
14F
100
AcDbEntity
  8
0
100
AcDbBlockReference
 62
     3
  6
CONTINUOUS
  2
_OPEN
 10
521.577276
 20
490.641250
 41
3.000000
 42
3.000000
 50
180.000000
  0
INSERT
  5
150
100
AcDbEntity
  8
0
100
AcDbBlockReference
 62
     3
  6
CONTINUOUS
  2
_OPEN
 10
543.577276
 20
490.641250
 41
3.000000
 42
3.000000
 50
0.000000
  0
LINE
  5
151
100
AcDbEntity
  8
0
100
AcDbLine
 62
     3
  6
CONTINUOUS
 10
521.577276281070
 20
484.529830216720
 11
521.577276281070
 21
491.641250029206
  0
LINE
  5
152
100
AcDbEntity
  8
0
100
AcDbLine
 62
     3
  6
CONTINUOUS
 10
543.577276281070
 20
484.529830216720
 11
543.577276281070
 21
491.641250029206
  0
ENDBLK
  5
153
100
AcDbEntity
  8
0
100
AcDbBlockEnd
  0
ENDSEC
  0
SECTION
  2
ENTITIES
  0
DIMENSION
  5
154
100
AcDbEntity
  8
0
100
AcDbDimension
 62
     3
  6
CONTINUOUS
  2
*D0
 10
592.051913
 20
490.641250
 11
607.699130
 21
490.641250
 70
   160
  1
3.82{\H3.00;\S ^ %%p0.1;}
  3
DIM1
100
AcDbAlignedDimension
 13
588.231913
 23
483.529830
 14
592.051913
 24
483.529830
100
AcDbRotatedDimension
1001
ACAD
1000
DSTYLE
1002
{
1070
   271
1070
     1
1002
}
  0
LINE
  5
155
100
AcDbEntity
  8
0
100
AcDbLine
 62
     2
  6
CONTINUOUS
 10
588.231912985983
 20
461.529830420169
 11
588.231912985983
 21
483.529829657187
  0
LINE
  5
156
100
AcDbEntity
  8
0
100
AcDbLine
 62
     2
  6
CONTINUOUS
 10
592.051912985983
 20
461.529830420169
 11
592.051912985983
 21
483.529829657187
  0
DIMENSION
  5
157
100
AcDbEntity
  8
0
100
AcDbDimension
 62
     3
  6
CONTINUOUS
  2
*D1
 10
540.677275
 20
430.342789
 11
529.607277
 21
430.342789
 70
   160
  1
(16.2)
  3
DIM1
100
AcDbAlignedDimension
 13
524.477278
 23
442.265260
 14
540.677275
 24
442.266605
100
AcDbRotatedDimension
1001
ACAD
1000
DSTYLE
1002
{
1070
   271
1070
     1
1002
}
  0
DIMENSION
  5
158
100
AcDbEntity
  8
0
100
AcDbDimension
 62
     3
  6
CONTINUOUS
  2
*D2
 10
513.946813
 20
483.529830
 11
513.946813
 21
470.549830
 70
   160
  1
(22)
  3
DIM1
100
AcDbAlignedDimension
 13
521.577276
 23
461.529830
 14
521.577276
 24
483.529830
 50
90.000000
100
AcDbRotatedDimension
1001
ACAD
1000
DSTYLE
1002
{
1070
   271
1070
     1
1002
}
  0
DIMENSION
  5
159
100
AcDbEntity
  8
0
100
AcDbDimension
 62
     3
  6
CONTINUOUS
  2
*D3
 10
543.577276
 20
490.641250
 11
530.597276
 21
490.641250
 70
   160
  1
(22)
  3
DIM1
100
AcDbAlignedDimension
 13
521.577276
 23
483.529830
 14
543.577276
 24
483.529830
100
AcDbRotatedDimension
1001
ACAD
1000
DSTYLE
1002
{
1070
   271
1070
     1
1002
}
  0
POINT
  5
15A
100
AcDbEntity
  8
0
100
AcDbPoint
 62
     0
  6
CONTINUOUS
 10
644.648327472137
 20
450.783205586681
  0
POINT
  5
15B
100
AcDbEntity
  8
0
100
AcDbPoint
 62
     0
  6
CONTINUOUS
 10
644.648327472137
 20
450.769087948100
  0
POINT
  5
15C
100
AcDbEntity
  8
0
100
AcDbPoint
 62
     0
  6
CONTINUOUS
 10
644.648327472137
 20
450.783205586681
  0
POINT
  5
15D
100
AcDbEntity
  8
0
100
AcDbPoint
 62
     0
  6
CONTINUOUS
 10
644.648327472137
 20
450.797323225261
  0
LINE
  5
15E
100
AcDbEntity
  8
0
100
AcDbLine
 62
     0
  6
CENTER2
 48
10.0
 10
660.798993486557
 20
442.265259556667
 11
660.798993486557
 21
461.976286988900
  0
LINE
  5
15F
100
AcDbEntity
  8
0
100
AcDbLine
 62
     2
  6
CONTINUOUS
 10
663.698993793678
 20
461.529830216720
 11
663.698993793678
 21
483.529830216720
  0
LINE
  5
160
100
AcDbEntity
  8
0
100
AcDbLine
 62
     2
  6
CONTINUOUS
 10
663.698993793678
 20
483.529830216720
 11
641.698993793678
 21
483.529830216720
  0
LINE
  5
161
100
AcDbEntity
  8
0
100
AcDbLine
 62
     0
  6
CENTER2
 48
10.0
 10
644.598995887257
 20
442.265259556667
 11
644.598995887257
 21
461.976286988900
  0
ARC
  5
162
100
AcDbEntity
  8
0
100
AcDbCircle
 62
     2
  6
CONTINUOUS
 10
660.077988627188
 20
458.832989185977
 40
0.500000000000
100
AcDbArc
 50
179.999999990317
 51
240.597928839324
  0
ARC
  5
163
100
AcDbEntity
  8
0
100
AcDbCircle
 62
     2
  6
CONTINUOUS
 10
661.476536541533
 20
458.832837218885
 40
0.500000000000
100
AcDbArc
 50
301.104272596160
 51
359.999999980633
  0
LINE
  5
164
100
AcDbEntity
  8
0
100
AcDbLine
 62
     2
  6
CONTINUOUS
 10
659.578558865558
 20
458.833929502275
 11
659.578558865558
 21
460.527571827451
  0
LINE
  5
165
100
AcDbEntity
  8
0
100
AcDbLine
 62
     2
  6
CONTINUOUS
 10
659.477967338522
 20
461.029807297732
 11
659.578667561671
 21
460.528084886596
  0
LINE
  5
166
100
AcDbEntity
  8
0
100
AcDbLine
 62
     2
  6
CONTINUOUS
 10
662.076557494091
 20
461.029494394651
 11
661.976555772448
 21
460.527160165003
  0
LINE
  5
167
100
AcDbEntity
  8
0
100
AcDbLine
 62
     2
  6
CONTINUOUS
 10
662.076524588020
 20
461.529827522682
 11
662.076524588020
 21
461.029827522682
  0
LINE
  5
168
100
AcDbEntity
  8
0
100
AcDbLine
 62
     2
  6
CONTINUOUS
 10
661.976411860060
 20
458.820296748120
 11
661.976411860060
 21
460.527571827451
  0
LINE
  5
169
100
AcDbEntity
  8
0
100
AcDbLine
 62
     2
  6
CONTINUOUS
 10
659.477938649567
 20
461.529827522682
 11
659.477938649567
 21
461.029827522682
  0
LINE
  5
16A
100
AcDbEntity
  8
0
100
AcDbLine
 62
     2
  6
CONTINUOUS
 10
661.745733502876
 20
456.698055862028
 11
661.745733502876
 21
458.405330941358
  0
LINE
  5
16B
100
AcDbEntity
  8
0
100
AcDbLine
 62
     2
  6
CONTINUOUS
 10
659.824615779888
 20
456.711688616183
 11
659.824615779888
 21
458.405330941358
  0
LINE
  5
16C
100
AcDbEntity
  8
0
100
AcDbLine
 62
     2
  6
CONTINUOUS
 10
659.839849640876
 20
456.702102647964
 11
661.762169284076
 21
456.702102647964
  0
LINE
  5
16D
100
AcDbEntity
  8
0
100
AcDbLine
 62
     2
  6
CONTINUOUS
 10
643.701626262145
 20
456.700757658071
 11
645.623945905344
 21
456.700757658071
  0
ARC
  5
16E
100
AcDbEntity
  8
0
100
AcDbCircle
 62
     2
  6
CONTINUOUS
 10
645.338313162802
 20
458.831492228992
 40
0.500000000000
100
AcDbArc
 50
301.104272596160
 51
359.999999980633
  0
LINE
  5
16F
100
AcDbEntity
  8
0
100
AcDbLine
 62
     2
  6
CONTINUOUS
 10
643.339743959791
 20
461.028462307839
 11
643.440444182940
 21
460.526739896703
  0
LINE
  5
170
100
AcDbEntity
  8
0
100
AcDbLine
 62
     2
  6
CONTINUOUS
 10
645.938334115360
 20
461.028149404758
 11
645.838332393717
 21
460.525815175110
  0
LINE
  5
171
100
AcDbEntity
  8
0
100
AcDbLine
 62
     2
  6
CONTINUOUS
 10
645.938301209288
 20
461.528482532789
 11
645.938301209288
 21
461.028482532789
  0
LINE
  5
172
100
AcDbEntity
  8
0
100
AcDbLine
 62
     2
  6
CONTINUOUS
 10
645.838188481329
 20
458.818951758227
 11
645.838188481329
 21
460.526226837558
  0
LINE
  5
173
100
AcDbEntity
  8
0
100
AcDbLine
 62
     2
  6
CONTINUOUS
 10
643.339715270836
 20
461.528482532789
 11
643.339715270836
 21
461.028482532789
  0
LINE
  5
174
100
AcDbEntity
  8
0
100
AcDbLine
 62
     2
  6
CONTINUOUS
 10
643.686392401157
 20
456.710343626290
 11
643.686392401157
 21
458.403985951465
  0
ARC
  5
175
100
AcDbEntity
  8
0
100
AcDbCircle
 62
     2
  6
CONTINUOUS
 10
643.939765248457
 20
458.831644196084
 40
0.500000000000
100
AcDbArc
 50
179.999999990317
 51
240.597928839324
  0
LINE
  5
176
100
AcDbEntity
  8
0
100
AcDbLine
 62
     2
  6
CONTINUOUS
 10
645.607510124145
 20
456.696710872135
 11
645.607510124145
 21
458.403985951465
  0
LINE
  5
177
100
AcDbEntity
  8
0
100
AcDbLine
 62
     2
  6
CONTINUOUS
 10
643.440335486827
 20
458.832584512382
 11
643.440335486827
 21
460.526226837558
  0
LINE
  5
178
100
AcDbEntity
  8
0
100
AcDbLine
 62
     2
  6
CONTINUOUS
 10
660.079016602020
 20
456.726127382471
 11
660.079016602020
 21
442.580102838213
  0
LINE
  5
179
100
AcDbEntity
  8
0
100
AcDbLine
 62
     2
  6
CONTINUOUS
 10
645.380736349481
 20
456.701110194632
 11
645.380736349481
 21
442.574265789436
  0
LINE
  5
17A
100
AcDbEntity
  8
0
100
AcDbLine
 62
     2
  6
CONTINUOUS
 10
643.940761269526
 20
456.675223139310
 11
643.940761269526
 21
442.586627640025
  0
LINE
  5
17B
100
AcDbEntity
  8
0
100
AcDbLine
 62
     2
  6
CONTINUOUS
 10
645.054605515293
 20
458.331562789352
 11
644.244798489044
 21
458.331562789352
  0
LINE
  5
17C
100
AcDbEntity
  8
0
100
AcDbLine
 62
     2
  6
CONTINUOUS
 10
642.245739951247
 20
461.529830597536
 11
646.149910060206
 21
461.529830597536
  0
LINE
  5
17D
100
AcDbEntity
  8
0
100
AcDbLine
 62
     2
  6
CONTINUOUS
 10
661.518991681976
 20
456.711949111065
 11
661.518991681976
 21
442.590051714899
  0
LINE
  5
17E
100
AcDbEntity
  8
0
100
AcDbLine
 62
     0
  6
CENTER2
 48
10.0
 10
660.798992551208
 20
442.266604546560
 11
660.798992551208
 21
461.977631978793
  0
LINE
  5
17F
100
AcDbEntity
  8
0
100
AcDbLine
 62
     2
  6
CONTINUOUS
 10
641.698993793678
 20
461.529830216720
 11
663.698993793678
 21
461.529830216720
  0
LINE
  5
180
100
AcDbEntity
  8
0
100
AcDbLine
 62
     2
  6
CONTINUOUS
 10
641.698993793678
 20
483.529830216720
 11
641.698993793678
 21
461.529830216720
  0
SPLINE
  5
181
100
AcDbEntity
  8
0
100
AcDbSpline
 62
     0
  6
CONTINUOUS
210
0.000000000000
220
0.000000000000
230
1.000000000000
 70
     8
 71
     3
 72
     0
 73
     0
 74
     3
 42
0.000000100000
 43
0.000000100000
 44
0.000000000000
 11
641.766040493133
 21
450.784550576574
 11
643.290745459827
 21
451.391609035535
 11
644.744862233619
 21
450.770432937993
  0
SPLINE
  5
182
100
AcDbEntity
  8
0
100
AcDbSpline
 62
     0
  6
CONTINUOUS
210
0.000000000000
220
0.000000000000
230
1.000000000000
 70
     8
 71
     3
 72
     0
 73
     0
 74
     3
 42
0.000000100000
 43
0.000000100000
 44
0.000000000000
 11
641.766040493133
 21
450.064551008968
 11
643.290745459827
 21
450.671609467930
 11
644.744862233619
 21
450.050433370388
  0
SPLINE
  5
183
100
AcDbEntity
  8
0
100
AcDbSpline
 62
     0
  6
CONTINUOUS
210
0.000000000000
220
0.000000000000
230
1.000000000000
 70
     8
 71
     3
 72
     0
 73
     0
 74
     3
 42
0.000000100000
 43
0.000000100000
 44
0.000000000000
 11
644.744862233619
 21
450.064551008968
 11
646.340155393215
 21
449.415139634265
 11
647.794272167007
 21
450.064551008968
  0
SPLINE
  5
184
100
AcDbEntity
  8
0
100
AcDbSpline
 62
     0
  6
CONTINUOUS
210
0.000000000000
220
0.000000000000
230
1.000000000000
 70
     8
 71
     3
 72
     0
 73
     0
 74
     3
 42
0.000000100000
 43
0.000000100000
 44
0.000000000000
 11
644.744862233619
 21
450.784550576574
 11
646.340155393215
 21
450.135139201871
 11
647.794272167007
 21
450.784550576574
  0
SPLINE
  5
185
100
AcDbEntity
  8
0
100
AcDbSpline
 62
     0
  6
CONTINUOUS
210
0.000000000000
220
0.000000000000
230
1.000000000000
 70
     8
 71
     3
 72
     0
 73
     0
 74
     3
 42
0.000000100000
 43
0.000000100000
 44
0.000000000000
 11
657.966038208716
 21
450.784550576574
 11
659.490743175410
 21
451.391609035535
 11
660.944859949201
 21
450.770432937993
  0
SPLINE
  5
186
100
AcDbEntity
  8
0
100
AcDbSpline
 62
     0
  6
CONTINUOUS
210
0.000000000000
220
0.000000000000
230
1.000000000000
 70
     8
 71
     3
 72
     0
 73
     0
 74
     3
 42
0.000000100000
 43
0.000000100000
 44
0.000000000000
 11
657.966038208716
 21
450.064551008968
 11
659.490743175410
 21
450.671609467930
 11
660.944859949201
 21
450.050433370388
  0
SPLINE
  5
187
100
AcDbEntity
  8
0
100
AcDbSpline
 62
     0
  6
CONTINUOUS
210
0.000000000000
220
0.000000000000
230
1.000000000000
 70
     8
 71
     3
 72
     0
 73
     0
 74
     3
 42
0.000000100000
 43
0.000000100000
 44
0.000000000000
 11
660.944859949201
 21
450.784550576574
 11
662.540153108798
 21
450.135139201871
 11
663.994269882590
 21
450.784550576574
  0
SPLINE
  5
188
100
AcDbEntity
  8
0
100
AcDbSpline
 62
     0
  6
CONTINUOUS
210
0.000000000000
220
0.000000000000
230
1.000000000000
 70
     8
 71
     3
 72
     0
 73
     0
 74
     3
 42
0.000000100000
 43
0.000000100000
 44
0.000000000000
 11
660.944859949201
 21
450.064551008968
 11
662.540153108798
 21
449.415139634265
 11
663.994269882590
 21
450.064551008968
  0
LINE
  5
189
100
AcDbEntity
  8
0
100
AcDbLine
 62
     2
  6
CONTINUOUS
 10
591.416912710969
 20
461.529830538806
 11
591.416912710969
 21
483.529828746120
  0
LINE
  5
18A
100
AcDbEntity
  8
0
100
AcDbLine
 62
     2
  6
CONTINUOUS
 10
590.861912116750
 20
456.711949111065
 11
590.861912116750
 21
442.590051714899
  0
LINE
  5
18B
100
AcDbEntity
  8
0
100
AcDbLine
 62
     0
  6
CENTER2
 48
10.0
 10
590.141912985983
 20
442.266604546560
 11
590.141912985983
 21
461.977631978793
  0
LINE
  5
18C
100
AcDbEntity
  8
0
100
AcDbLine
 62
     0
  6
CENTER2
 48
10.0
 10
590.141913921332
 20
442.265259556667
 11
590.141913921332
 21
461.976286988900
  0
LINE
  5
18D
100
AcDbEntity
  8
0
100
AcDbLine
 62
     2
  6
CONTINUOUS
 10
589.421937036795
 20
456.726127382471
 11
589.421937036795
 21
442.580102838213
  0
SPLINE
  5
18E
100
AcDbEntity
  8
0
100
AcDbSpline
 62
     0
  6
CONTINUOUS
210
0.000000000000
220
0.000000000000
230
1.000000000000
 70
     8
 71
     3
 72
     0
 73
     0
 74
     3
 42
0.000000100000
 43
0.000000100000
 44
0.000000000000
 11
587.308958643491
 21
450.064551008968
 11
588.833663610185
 21
450.671609467930
 11
590.287780383976
 21
450.050433370388
  0
SPLINE
  5
18F
100
AcDbEntity
  8
0
100
AcDbSpline
 62
     0
  6
CONTINUOUS
210
0.000000000000
220
0.000000000000
230
1.000000000000
 70
     8
 71
     3
 72
     0
 73
     0
 74
     3
 42
0.000000100000
 43
0.000000100000
 44
0.000000000000
 11
590.287780383976
 21
450.064551008968
 11
591.883073543573
 21
449.415139634265
 11
593.337190317365
 21
450.064551008968
  0
SPLINE
  5
190
100
AcDbEntity
  8
0
100
AcDbSpline
 62
     0
  6
CONTINUOUS
210
0.000000000000
220
0.000000000000
230
1.000000000000
 70
     8
 71
     3
 72
     0
 73
     0
 74
     3
 42
0.000000100000
 43
0.000000100000
 44
0.000000000000
 11
590.287780383976
 21
450.784550576574
 11
591.883073543573
 21
450.135139201871
 11
593.337190317365
 21
450.784550576574
  0
SPLINE
  5
191
100
AcDbEntity
  8
0
100
AcDbSpline
 62
     0
  6
CONTINUOUS
210
0.000000000000
220
0.000000000000
230
1.000000000000
 70
     8
 71
     3
 72
     0
 73
     0
 74
     3
 42
0.000000100000
 43
0.000000100000
 44
0.000000000000
 11
587.308958643491
 21
450.784550576574
 11
588.833663610185
 21
451.391609035535
 11
590.287780383976
 21
450.770432937993
  0
SPLINE
  5
192
100
AcDbEntity
  8
0
100
AcDbSpline
 62
     0
  6
CONTINUOUS
210
0.000000000000
220
0.000000000000
230
1.000000000000
 70
     8
 71
     3
 72
     0
 73
     0
 74
     3
 42
0.000000100000
 43
0.000000100000
 44
0.000000000000
 11
521.644322980525
 21
450.784550576574
 11
523.169027947219
 21
451.391609035535
 11
524.623144721011
 21
450.770432937993
  0
SPLINE
  5
193
100
AcDbEntity
  8
0
100
AcDbSpline
 62
     0
  6
CONTINUOUS
210
0.000000000000
220
0.000000000000
230
1.000000000000
 70
     8
 71
     3
 72
     0
 73
     0
 74
     3
 42
0.000000100000
 43
0.000000100000
 44
0.000000000000
 11
521.644322980525
 21
450.064551008968
 11
523.169027947219
 21
450.671609467930
 11
524.623144721011
 21
450.050433370388
  0
SPLINE
  5
194
100
AcDbEntity
  8
0
100
AcDbSpline
 62
     0
  6
CONTINUOUS
210
0.000000000000
220
0.000000000000
230
1.000000000000
 70
     8
 71
     3
 72
     0
 73
     0
 74
     3
 42
0.000000100000
 43
0.000000100000
 44
0.000000000000
 11
524.623144721011
 21
450.064551008968
 11
526.218437880608
 21
449.415139634265
 11
527.672554654399
 21
450.064551008968
  0
SPLINE
  5
195
100
AcDbEntity
  8
0
100
AcDbSpline
 62
     0
  6
CONTINUOUS
210
0.000000000000
220
0.000000000000
230
1.000000000000
 70
     8
 71
     3
 72
     0
 73
     0
 74
     3
 42
0.000000100000
 43
0.000000100000
 44
0.000000000000
 11
524.623144721011
 21
450.784550576574
 11
526.218437880608
 21
450.135139201871
 11
527.672554654399
 21
450.784550576574
  0
LINE
  5
196
100
AcDbEntity
  8
0
100
AcDbLine
 62
     0
  6
CENTER2
 48
10.0
 10
540.677275973950
 20
442.265259556667
 11
540.677275973950
 21
461.976286988900
  0
LINE
  5
197
100
AcDbEntity
  8
0
100
AcDbLine
 62
     2
  6
CONTINUOUS
 10
521.577276281070
 20
483.529830216720
 11
521.577276281070
 21
461.529830216720
  0
LINE
  5
198
100
AcDbEntity
  8
0
100
AcDbLine
 62
     2
  6
CONTINUOUS
 10
521.577276281070
 20
461.529830216720
 11
543.577276281070
 21
461.529830216720
  0
LINE
  5
199
100
AcDbEntity
  8
0
100
AcDbLine
 62
     2
  6
CONTINUOUS
 10
543.577276281070
 20
461.529830216720
 11
543.577276281070
 21
483.529830216720
  0
LINE
  5
19A
100
AcDbEntity
  8
0
100
AcDbLine
 62
     2
  6
CONTINUOUS
 10
543.577276281070
 20
483.529830216720
 11
521.577276281070
 21
483.529830216720
  0
LINE
  5
19B
100
AcDbEntity
  8
0
100
AcDbLine
 62
     0
  6
CENTER2
 48
10.0
 10
524.477278374649
 20
442.265259556667
 11
524.477278374649
 21
461.976286988900
  0
LINE
  5
19C
100
AcDbEntity
  8
0
100
AcDbLine
 62
     0
  6
CENTER2
 48
10.0
 10
540.677275038600
 20
442.266604546560
 11
540.677275038600
 21
461.977631978793
  0
LINE
  5
19D
100
AcDbEntity
  8
0
100
AcDbLine
 62
     0
  6
CENTER2
 48
10.0
 10
532.577277174300
 20
460.755330489372
 11
532.577277174300
 21
483.992676900123
  0
LINE
  5
19E
100
AcDbEntity
  8
0
100
AcDbLine
 62
     0
  6
CENTER2
 48
10.0
 10
544.229018892202
 20
472.529829296062
 11
521.088494758162
 21
472.529829296062
  0
TEXT
  5
19F
100
AcDbEntity
  8
0
100
AcDbText
 62
     0
  6
CONTINUOUS
 10
561.037599109113
 20
453.528524562716
 40
3.500000000000
 41
0.714285714286
 50
0.000000000000
  1
シリコーンシーラント
100
AcDbText
  0
TEXT
  5
1A0
100
AcDbEntity
  8
0
100
AcDbText
 62
     0
  6
CONTINUOUS
 10
561.183194540441
 20
457.456248328090
 40
3.500000000000
 41
0.714285714286
 50
0.000000000000
  1
防湿シーリング
100
AcDbText
  0
LEADER
  5
1A1
100
AcDbEntity
  8
0
100
AcDbLeader
 62
     3
  6
CONTINUOUS
  3
DIM1
 76
     2
 10
590.141530
 20
472.816872
 10
575.145200
 20
461.169237
 77
     3
1001
ACAD
1000
DSTYLE
1002
{
1070
     6
1000
_OPEN
1070
    41
1040
3.000000000000
1002
}
  0
LINE
  5
1A2
100
AcDbEntity
  8
0
100
AcDbLine
 62
     2
  6
CONTINUOUS
 10
588.231912985983
 20
483.529829657187
 11
591.496833572013
 21
483.529829657187
  0
LINE
  5
1A3
100
AcDbEntity
  8
0
100
AcDbLine
 62
     2
  6
CONTINUOUS
 10
588.231912985983
 20
461.529830420169
 11
591.496859349118
 21
461.529830420169
  0
LINE
  5
1A4
100
AcDbEntity
  8
0
100
AcDbLine
 62
     2
  6
CONTINUOUS
 10
592.051912985983
 20
483.529829657187
 11
591.496826830282
 21
483.529829657187
  0
LEADER
  5
1A5
100
AcDbEntity
  8
0
100
AcDbLeader
 62
     3
  6
CONTINUOUS
  3
DIM1
 76
     2
 10
592.118778
 20
459.010007
 10
601.568426
 20
464.131278
 77
     3
1001
ACAD
1000
DSTYLE
1002
{
1070
     6
1000
_OPEN
1070
    41
1040
3.000000000000
1002
}
  0
TEXT
  5
1A6
100
AcDbEntity
  8
0
100
AcDbText
 62
     0
  6
CONTINUOUS
 10
598.539960034192
 20
465.639958262444
 40
3.500000000000
 41
0.714285714286
 50
0.000000000000
  1
熱収縮チューブ
100
AcDbText
  0
LEADER
  5
1A7
100
AcDbEntity
  8
0
100
AcDbLeader
 62
     3
  6
CONTINUOUS
  3
DIM1
 76
     2
 10
592.429351
 20
468.860760
 10
601.878999
 20
473.982031
 77
     3
1001
ACAD
1000
DSTYLE
1002
{
1070
     6
1000
_OPEN
1070
    41
1040
3.000000000000
1002
}
  0
TEXT
  5
1A8
100
AcDbEntity
  8
0
100
AcDbText
 62
     0
  6
CONTINUOUS
 10
597.919392667711
 20
481.077552691102
 40
3.500000000000
 41
0.714285714286
 50
0.000000000000
  1
セラミックス板
100
AcDbText
  0
TEXT
  5
1A9
100
AcDbEntity
  8
0
100
AcDbText
 62
     0
  6
CONTINUOUS
 10
597.919392667711
 20
476.421851769090
 40
3.500000000000
 41
0.714285714286
 50
0.000000000000
  1
（アルミナ96％）
100
AcDbText
  0
LINE
  5
1AA
100
AcDbEntity
  8
0
100
AcDbLine
 62
     2
  6
CONTINUOUS
 10
592.051912985983
 20
461.529830420169
 11
591.496835892849
 21
461.529830420169
  0
LINE
  5
1AB
100
AcDbEntity
  8
0
100
AcDbLine
 62
     2
  6
CONTINUOUS
 10
588.866913260996
 20
461.529830538806
 11
588.866913260996
 21
483.529828746120
  0
LINE
  5
1AC
100
AcDbEntity
  8
0
100
AcDbLine
 62
     2
  6
CONTINUOUS
 10
590.911037702448
 20
461.529829426795
 11
590.911037702448
 21
458.832583738857
  0
ARC
  5
1AD
100
AcDbEntity
  8
0
100
AcDbCircle
 62
     2
  6
CONTINUOUS
 10
591.410467464078
 20
458.831643422558
 40
0.500000000000
100
AcDbArc
 50
179.999999990317
 51
232.648659441253
  0
LINE
  5
1AE
100
AcDbEntity
  8
0
100
AcDbLine
 62
     2
  6
CONTINUOUS
 10
589.432978306300
 20
461.529831082368
 11
589.432978306300
 21
458.818950984702
  0
LINE
  5
1AF
100
AcDbEntity
  8
0
100
AcDbLine
 62
     2
  6
CONTINUOUS
 10
591.101880774236
 20
456.700516586558
 11
591.101880774236
 21
458.444807647860
  0
ARC
  5
1B0
100
AcDbEntity
  8
0
100
AcDbCircle
 62
     2
  6
CONTINUOUS
 10
588.933102987773
 20
458.831491455467
 40
0.500000000000
100
AcDbArc
 50
301.104272596160
 51
359.999999980633
  0
LINE
  5
1B1
100
AcDbEntity
  8
0
100
AcDbLine
 62
     2
  6
CONTINUOUS
 10
589.180763051248
 20
456.701476074190
 11
589.180763051248
 21
458.403985177940
  0
LINE
  5
1B2
100
AcDbEntity
  8
0
100
AcDbLine
 62
     2
  6
CONTINUOUS
 10
591.102411332755
 20
456.700756884546
 11
589.180421891546
 21
456.700756884546
  0
ARC
  5
1B3
100
AcDbEntity
  8
0
100
AcDbCircle
 62
     2
  6
CONTINUOUS
 10
539.956271114581
 20
458.832989185977
 40
0.500000000000
100
AcDbArc
 50
179.999999990317
 51
240.597928839324
  0
ARC
  5
1B4
100
AcDbEntity
  8
0
100
AcDbCircle
 62
     2
  6
CONTINUOUS
 10
541.354819028926
 20
458.832837218885
 40
0.500000000000
100
AcDbArc
 50
301.104272596160
 51
359.999999980633
  0
LINE
  5
1B5
100
AcDbEntity
  8
0
100
AcDbLine
 62
     2
  6
CONTINUOUS
 10
539.456841352951
 20
458.833929502275
 11
539.456841352951
 21
460.527571827451
  0
LINE
  5
1B6
100
AcDbEntity
  8
0
100
AcDbLine
 62
     2
  6
CONTINUOUS
 10
539.356249825915
 20
461.029807297732
 11
539.456950049064
 21
460.528084886596
  0
LINE
  5
1B7
100
AcDbEntity
  8
0
100
AcDbLine
 62
     2
  6
CONTINUOUS
 10
541.954839981483
 20
461.029494394651
 11
541.854838259840
 21
460.527160165003
  0
LINE
  5
1B8
100
AcDbEntity
  8
0
100
AcDbLine
 62
     2
  6
CONTINUOUS
 10
541.954807075412
 20
461.529827522682
 11
541.954807075412
 21
461.029827522682
  0
LINE
  5
1B9
100
AcDbEntity
  8
0
100
AcDbLine
 62
     2
  6
CONTINUOUS
 10
541.854694347452
 20
458.820296748120
 11
541.854694347452
 21
460.527571827451
  0
LINE
  5
1BA
100
AcDbEntity
  8
0
100
AcDbLine
 62
     2
  6
CONTINUOUS
 10
539.356221136959
 20
461.529827522682
 11
539.356221136959
 21
461.029827522682
  0
LINE
  5
1BB
100
AcDbEntity
  8
0
100
AcDbLine
 62
     2
  6
CONTINUOUS
 10
541.624015990269
 20
456.698055862028
 11
541.624015990269
 21
458.405330941358
  0
LINE
  5
1BC
100
AcDbEntity
  8
0
100
AcDbLine
 62
     2
  6
CONTINUOUS
 10
539.702898267280
 20
456.711688616183
 11
539.702898267280
 21
458.405330941358
  0
LINE
  5
1BD
100
AcDbEntity
  8
0
100
AcDbLine
 62
     2
  6
CONTINUOUS
 10
539.718132128269
 20
456.702102647964
 11
541.640451771468
 21
456.702102647964
  0
LINE
  5
1BE
100
AcDbEntity
  8
0
100
AcDbLine
 62
     2
  6
CONTINUOUS
 10
523.579908749537
 20
456.700757658071
 11
525.502228392737
 21
456.700757658071
  0
ARC
  5
1BF
100
AcDbEntity
  8
0
100
AcDbCircle
 62
     2
  6
CONTINUOUS
 10
525.216595650194
 20
458.831492228992
 40
0.500000000000
100
AcDbArc
 50
301.104272596160
 51
359.999999980633
  0
LINE
  5
1C0
100
AcDbEntity
  8
0
100
AcDbLine
 62
     2
  6
CONTINUOUS
 10
523.218026447183
 20
461.028462307839
 11
523.318726670332
 21
460.526739896703
  0
LINE
  5
1C1
100
AcDbEntity
  8
0
100
AcDbLine
 62
     2
  6
CONTINUOUS
 10
525.816616602752
 20
461.028149404758
 11
525.716614881109
 21
460.525815175110
  0
LINE
  5
1C2
100
AcDbEntity
  8
0
100
AcDbLine
 62
     2
  6
CONTINUOUS
 10
525.816583696681
 20
461.528482532789
 11
525.816583696681
 21
461.028482532789
  0
LINE
  5
1C3
100
AcDbEntity
  8
0
100
AcDbLine
 62
     2
  6
CONTINUOUS
 10
525.716470968721
 20
458.818951758227
 11
525.716470968721
 21
460.526226837558
  0
LINE
  5
1C4
100
AcDbEntity
  8
0
100
AcDbLine
 62
     2
  6
CONTINUOUS
 10
523.217997758228
 20
461.528482532789
 11
523.217997758228
 21
461.028482532789
  0
LINE
  5
1C5
100
AcDbEntity
  8
0
100
AcDbLine
 62
     2
  6
CONTINUOUS
 10
523.564674888549
 20
456.710343626290
 11
523.564674888549
 21
458.403985951465
  0
ARC
  5
1C6
100
AcDbEntity
  8
0
100
AcDbCircle
 62
     2
  6
CONTINUOUS
 10
523.818047735850
 20
458.831644196084
 40
0.500000000000
100
AcDbArc
 50
179.999999990317
 51
240.597928839324
  0
LINE
  5
1C7
100
AcDbEntity
  8
0
100
AcDbLine
 62
     2
  6
CONTINUOUS
 10
525.485792611537
 20
456.696710872135
 11
525.485792611537
 21
458.403985951465
  0
LINE
  5
1C8
100
AcDbEntity
  8
0
100
AcDbLine
 62
     2
  6
CONTINUOUS
 10
523.318617974220
 20
458.832584512382
 11
523.318617974220
 21
460.526226837558
  0
LINE
  5
1C9
100
AcDbEntity
  8
0
100
AcDbLine
 62
     2
  6
CONTINUOUS
 10
541.397274169368
 20
456.711949111065
 11
541.397274169368
 21
442.590051714899
  0
LINE
  5
1CA
100
AcDbEntity
  8
0
100
AcDbLine
 62
     2
  6
CONTINUOUS
 10
539.957299089413
 20
456.726127382471
 11
539.957299089413
 21
442.580102838213
  0
SPLINE
  5
1CB
100
AcDbEntity
  8
0
100
AcDbSpline
 62
     0
  6
CONTINUOUS
210
0.000000000000
220
0.000000000000
230
1.000000000000
 70
     8
 71
     3
 72
     0
 73
     0
 74
     3
 42
0.000000100000
 43
0.000000100000
 44
0.000000000000
 11
537.844320696108
 21
450.784550576574
 11
539.369025662802
 21
451.391609035535
 11
540.823142436594
 21
450.770432937993
  0
SPLINE
  5
1CC
100
AcDbEntity
  8
0
100
AcDbSpline
 62
     0
  6
CONTINUOUS
210
0.000000000000
220
0.000000000000
230
1.000000000000
 70
     8
 71
     3
 72
     0
 73
     0
 74
     3
 42
0.000000100000
 43
0.000000100000
 44
0.000000000000
 11
537.844320696108
 21
450.064551008968
 11
539.369025662802
 21
450.671609467930
 11
540.823142436594
 21
450.050433370388
  0
SPLINE
  5
1CD
100
AcDbEntity
  8
0
100
AcDbSpline
 62
     0
  6
CONTINUOUS
210
0.000000000000
220
0.000000000000
230
1.000000000000
 70
     8
 71
     3
 72
     0
 73
     0
 74
     3
 42
0.000000100000
 43
0.000000100000
 44
0.000000000000
 11
540.823142436594
 21
450.064551008968
 11
542.418435596191
 21
449.415139634265
 11
543.872552369982
 21
450.064551008968
  0
SPLINE
  5
1CE
100
AcDbEntity
  8
0
100
AcDbSpline
 62
     0
  6
CONTINUOUS
210
0.000000000000
220
0.000000000000
230
1.000000000000
 70
     8
 71
     3
 72
     0
 73
     0
 74
     3
 42
0.000000100000
 43
0.000000100000
 44
0.000000000000
 11
540.823142436594
 21
450.784550576574
 11
542.418435596191
 21
450.135139201871
 11
543.872552369982
 21
450.784550576574
  0
POINT
  5
1CF
100
AcDbEntity
  8
0
100
AcDbPoint
 62
     0
  6
CONTINUOUS
 10
524.526609959530
 20
450.783205586681
  0
POINT
  5
1D0
100
AcDbEntity
  8
0
100
AcDbPoint
 62
     0
  6
CONTINUOUS
 10
524.526609959530
 20
450.769087948100
  0
POINT
  5
1D1
100
AcDbEntity
  8
0
100
AcDbPoint
 62
     0
  6
CONTINUOUS
 10
524.526609959530
 20
450.783205586681
  0
POINT
  5
1D2
100
AcDbEntity
  8
0
100
AcDbPoint
 62
     0
  6
CONTINUOUS
 10
524.526609959530
 20
450.797323225261
  0
TEXT
  5
1D3
100
AcDbEntity
  8
0
100
AcDbText
 62
     0
  6
CONTINUOUS
 10
659.264155566692
 20
411.769294396043
 40
3.500000000000
 41
0.714285714286
 50
0.000000000000
  1
CSA AWM
100
AcDbText
  0
TEXT
  5
1D4
100
AcDbEntity
  8
0
100
AcDbText
 62
     0
  6
CONTINUOUS
 10
659.264155566692
 20
415.931232035160
 40
3.500000000000
 41
0.714285714286
 50
0.000000000000
  1
UL3398
100
AcDbText
  0
TEXT
  5
1D5
100
AcDbEntity
  8
0
100
AcDbText
 62
     0
  6
CONTINUOUS
 10
630.126552663743
 20
429.293242350221
 40
3.500000000000
 41
0.714285714286
 50
0.000000000000
  1
リード線黒（-）
100
AcDbText
  0
TEXT
  5
1D6
100
AcDbEntity
  8
0
100
AcDbText
 62
     0
  6
CONTINUOUS
 10
659.264155566692
 20
420.312219023705
 40
3.500000000000
 41
0.714285714286
 50
0.000000000000
  1
L=130㎜
100
AcDbText
  0
TEXT
  5
1D7
100
AcDbEntity
  8
0
100
AcDbText
 62
     0
  6
CONTINUOUS
 10
659.264155566692
 20
424.693206012249
 40
3.500000000000
 41
0.714285714286
 50
0.000000000000
  1
線径：AWG24
100
AcDbText
  0
LINE
  5
1D8
100
AcDbEntity
  8
0
100
AcDbLine
 62
     2
  6
CONTINUOUS
 10
525.259018836874
 20
456.701110194632
 11
525.259018836874
 21
442.574265789436
  0
LINE
  5
1D9
100
AcDbEntity
  8
0
100
AcDbLine
 62
     2
  6
CONTINUOUS
 10
523.819043756919
 20
456.675223139310
 11
523.819043756919
 21
442.586627640025
  0
TEXT
  5
1DA
100
AcDbEntity
  8
0
100
AcDbText
 62
     0
  6
CONTINUOUS
 10
613.594535641372
 20
329.655133053660
 40
1.800000000000
 41
1.000000000000
 50
0.000000000000
  1
2012.10.15
100
AcDbText
  0
LINE
  5
1DB
100
AcDbEntity
  8
0
100
AcDbLine
 62
     2
  6
CONTINUOUS
 10
524.932888002685
 20
458.331562789352
 11
524.123080976436
 21
458.331562789352
  0
LINE
  5
1DC
100
AcDbEntity
  8
0
100
AcDbLine
 62
     2
  6
CONTINUOUS
 10
522.124022438640
 20
461.529830597536
 11
526.028192547599
 21
461.529830597536
  0
LINE
  5
1DD
100
AcDbEntity
  8
0
100
AcDbLine
 62
     0
  6
CONTINUOUS
 10
722.410247609019
 20
388.826000601053
 11
722.410247609019
 21
379.828468099236
  0
LINE
  5
1DE
100
AcDbEntity
  8
0
100
AcDbLine
 62
     0
  6
CONTINUOUS
 10
707.814250439405
 20
388.826000601053
 11
707.814250439405
 21
379.828468099236
  0
LINE
  5
1DF
100
AcDbEntity
  8
0
100
AcDbLine
 62
     0
  6
CONTINUOUS
 10
693.318225853145
 20
388.826000601053
 11
693.318225853145
 21
379.828468099236
  0
LINE
  5
1E0
100
AcDbEntity
  8
0
100
AcDbLine
 62
     0
  6
CONTINUOUS
 10
682.021323934197
 20
388.826000601053
 11
682.021323934197
 21
379.828468099236
  0
LINE
  5
1E1
100
AcDbEntity
  8
0
100
AcDbLine
 62
     0
  6
CONTINUOUS
 10
667.625271931291
 20
388.826000601053
 11
667.625271931291
 21
379.828468099236
  0
LINE
  5
1E2
100
AcDbEntity
  8
0
100
AcDbLine
 62
     0
  6
CONTINUOUS
 10
653.129247345030
 20
388.826000601053
 11
653.129247345030
 21
379.828468099236
  0
LINE
  5
1E3
100
AcDbEntity
  8
0
100
AcDbLine
 62
     0
  6
CONTINUOUS
 10
653.129343214532
 20
379.828468099236
 11
722.410247609019
 21
379.828468099236
  0
LINE
  5
1E4
100
AcDbEntity
  8
0
100
AcDbLine
 62
     0
  6
CONTINUOUS
 10
653.129251325245
 20
384.327234350145
 11
722.410247609019
 21
384.327234350145
  0
LINE
  5
1E5
100
AcDbEntity
  8
0
100
AcDbLine
 62
     0
  6
CONTINUOUS
 10
653.129245139178
 20
388.826000601053
 11
722.410247609019
 21
388.826000601053
  0
TEXT
  5
1E6
100
AcDbEntity
  8
0
100
AcDbText
 62
     0
  6
CONTINUOUS
 10
653.963972985744
 20
380.412576884031
 40
3.500000000000
 41
0.714285714286
 50
0.000000000000
  1
1.40Ω
100
AcDbText
  0
TEXT
  5
1E7
100
AcDbEntity
  8
0
100
AcDbText
 62
     0
  6
CONTINUOUS
 10
669.333315961063
 20
380.412576884031
 40
3.500000000000
 41
0.714285714286
 50
0.000000000000
  1
6.2V
100
AcDbText
  0
TEXT
  5
1E8
100
AcDbEntity
  8
0
100
AcDbText
 62
     0
  6
CONTINUOUS
 10
682.887304216623
 20
380.412576884031
 40
3.500000000000
 41
0.714285714286
 50
0.000000000000
  1
3.2Ａ
100
AcDbText
  0
TEXT
  5
1E9
100
AcDbEntity
  8
0
100
AcDbText
 62
     0
  6
CONTINUOUS
 10
695.111980557442
 20
380.412576884031
 40
3.500000000000
 41
0.714285714286
 50
0.000000000000
  1
70℃
100
AcDbText
  0
TEXT
  5
1EA
100
AcDbEntity
  8
0
100
AcDbText
 62
     0
  6
CONTINUOUS
 10
709.083736561239
 20
380.412576884031
 40
3.500000000000
 41
0.714285714286
 50
0.000000000000
  1
13Ｗ
100
AcDbText
  0
TEXT
  5
1EB
100
AcDbEntity
  8
0
100
AcDbText
 62
     0
  6
CONTINUOUS
 10
709.083736561239
 20
385.011315375566
 40
3.500000000000
 41
0.714285714286
 50
0.000000000000
  1
Ｑｍａｘ
100
AcDbText
  0
TEXT
  5
1EC
100
AcDbEntity
  8
0
100
AcDbText
 62
     0
  6
CONTINUOUS
 10
695.111980557442
 20
385.011315375566
 40
3.500000000000
 41
0.714285714286
 50
0.000000000000
  1
ΔＴｍａｘ
100
AcDbText
  0
TEXT
  5
1ED
100
AcDbEntity
  8
0
100
AcDbText
 62
     0
  6
CONTINUOUS
 10
682.887304216623
 20
385.011315375566
 40
3.500000000000
 41
0.714285714286
 50
0.000000000000
  1
Ｉｍａｘ
100
AcDbText
  0
TEXT
  5
1EE
100
AcDbEntity
  8
0
100
AcDbText
 62
     0
  6
CONTINUOUS
 10
669.333315961063
 20
385.011315375566
 40
3.500000000000
 41
0.714285714286
 50
0.000000000000
  1
Ｖｍａｘ
100
AcDbText
  0
TEXT
  5
1EF
100
AcDbEntity
  8
0
100
AcDbText
 62
     0
  6
CONTINUOUS
 10
654.237491697073
 20
385.011315375566
 40
3.500000000000
 41
0.714285714286
 50
0.000000000000
  1
電気抵抗値
100
AcDbText
  0
TEXT
  5
1F0
100
AcDbEntity
  8
0
100
AcDbText
 62
     0
  6
CONTINUOUS
 10
653.230732209980
 20
389.584443390369
 40
3.500000000000
 41
0.714285714286
 50
0.000000000000
  1
仕様（設計値）
100
AcDbText
  0
TEXT
  5
1F1
100
AcDbEntity
  8
0
100
AcDbText
 62
     0
  6
CONTINUOUS
 10
678.861142024398
 20
371.012469351292
 40
3.000000000000
 41
1.000000000000
 50
0.000000000000
  1
1
100
AcDbText
  0
TEXT
  5
1F2
100
AcDbEntity
  8
0
100
AcDbText
 62
     0
  6
CONTINUOUS
 10
606.003882959485
 20
369.903152085841
 40
2.200000000000
 41
0.909090909091
 50
0.000000000000
  1
0.10
100
AcDbText
  0
TEXT
  5
1F3
100
AcDbEntity
  8
0
100
AcDbText
 62
     0
  6
CONTINUOUS
 10
614.999771445990
 20
350.495157239959
 40
2.200000000000
 41
0.909090909091
 50
0.000000000000
  1
3.00
100
AcDbText
  0
TEXT
  5
1F4
100
AcDbEntity
  8
0
100
AcDbText
 62
     0
  6
CONTINUOUS
 10
614.983513936400
 20
353.462289512157
 40
2.200000000000
 41
0.909090909091
 50
0.000000000000
  1
2.00
100
AcDbText
  0
TEXT
  5
1F5
100
AcDbEntity
  8
0
100
AcDbText
 62
     0
  6
CONTINUOUS
 10
596.999771445990
 20
368.495157239959
 40
2.200000000000
 41
0.909090909091
 50
0.000000000000
  1
0.10
100
AcDbText
  0
TEXT
  5
1F6
100
AcDbEntity
  8
0
100
AcDbText
 62
     0
  6
CONTINUOUS
 10
596.983513936400
 20
371.462289512157
 40
2.200000000000
 41
0.909090909091
 50
0.000000000000
  1
0.05
100
AcDbText
  0
TEXT
  5
1F7
100
AcDbEntity
  8
0
100
AcDbText
 62
     0
  6
CONTINUOUS
 10
614.999771445990
 20
368.495157239959
 40
2.200000000000
 41
0.909090909091
 50
0.000000000000
  1
0.20
100
AcDbText
  0
TEXT
  5
1F8
100
AcDbEntity
  8
0
100
AcDbText
 62
     0
  6
CONTINUOUS
 10
614.983513936400
 20
371.462289512157
 40
2.200000000000
 41
0.909090909091
 50
0.000000000000
  1
0.15
100
AcDbText
  0
TEXT
  5
1F9
100
AcDbEntity
  8
0
100
AcDbText
 62
     0
  6
CONTINUOUS
 10
615.019888170063
 20
356.465965948999
 40
2.200000000000
 41
0.909090909091
 50
0.000000000000
  1
1.50
100
AcDbText
  0
TEXT
  5
1FA
100
AcDbEntity
  8
0
100
AcDbText
 62
     0
  6
CONTINUOUS
 10
614.983513936400
 20
359.470891818404
 40
2.200000000000
 41
0.909090909091
 50
0.000000000000
  1
1.00
100
AcDbText
  0
TEXT
  5
1FB
100
AcDbEntity
  8
0
100
AcDbText
 62
     0
  6
CONTINUOUS
 10
614.999771445990
 20
362.495157239959
 40
2.200000000000
 41
0.909090909091
 50
0.000000000000
  1
0.60
100
AcDbText
  0
TEXT
  5
1FC
100
AcDbEntity
  8
0
100
AcDbText
 62
     0
  6
CONTINUOUS
 10
614.983513936400
 20
365.462289512157
 40
2.200000000000
 41
0.909090909091
 50
0.000000000000
  1
0.40
100
AcDbText
  0
TEXT
  5
1FD
100
AcDbEntity
  8
0
100
AcDbText
 62
     0
  6
CONTINUOUS
 10
606.019888170063
 20
356.465965948999
 40
2.200000000000
 41
0.909090909091
 50
0.000000000000
  1
0.80
100
AcDbText
  0
TEXT
  5
1FE
100
AcDbEntity
  8
0
100
AcDbText
 62
     0
  6
CONTINUOUS
 10
605.983513936400
 20
359.470891818404
 40
2.200000000000
 41
0.909090909091
 50
0.000000000000
  1
0.60
100
AcDbText
  0
TEXT
  5
1FF
100
AcDbEntity
  8
0
100
AcDbText
 62
     0
  6
CONTINUOUS
 10
605.999771445990
 20
362.495157239959
 40
2.200000000000
 41
0.909090909091
 50
0.000000000000
  1
0.35
100
AcDbText
  0
TEXT
  5
200
100
AcDbEntity
  8
0
100
AcDbText
 62
     0
  6
CONTINUOUS
 10
605.983513936400
 20
365.462289512157
 40
2.200000000000
 41
0.909090909091
 50
0.000000000000
  1
0.20
100
AcDbText
  0
TEXT
  5
201
100
AcDbEntity
  8
0
100
AcDbText
 62
     0
  6
CONTINUOUS
 10
597.019888170063
 20
356.465965948999
 40
2.200000000000
 41
0.909090909091
 50
0.000000000000
  1
0.60
100
AcDbText
  0
TEXT
  5
202
100
AcDbEntity
  8
0
100
AcDbText
 62
     0
  6
CONTINUOUS
 10
596.983513936400
 20
359.470891818404
 40
2.200000000000
 41
0.909090909091
 50
0.000000000000
  1
0.40
100
AcDbText
  0
TEXT
  5
203
100
AcDbEntity
  8
0
100
AcDbText
 62
     0
  6
CONTINUOUS
 10
596.999771445990
 20
362.495157239959
 40
2.200000000000
 41
0.909090909091
 50
0.000000000000
  1
0.25
100
AcDbText
  0
TEXT
  5
204
100
AcDbEntity
  8
0
100
AcDbText
 62
     0
  6
CONTINUOUS
 10
596.983513936400
 20
365.462289512157
 40
2.200000000000
 41
0.909090909091
 50
0.000000000000
  1
0.15
100
AcDbText
  0
TEXT
  5
205
100
AcDbEntity
  8
0
100
AcDbText
 62
     0
  6
CONTINUOUS
 10
588.019888170063
 20
356.465965948999
 40
2.200000000000
 41
0.909090909091
 50
0.000000000000
  1
0.40
100
AcDbText
  0
TEXT
  5
206
100
AcDbEntity
  8
0
100
AcDbText
 62
     0
  6
CONTINUOUS
 10
587.983513936400
 20
359.470891818404
 40
2.200000000000
 41
0.909090909091
 50
0.000000000000
  1
0.20
100
AcDbText
  0
TEXT
  5
207
100
AcDbEntity
  8
0
100
AcDbText
 62
     0
  6
CONTINUOUS
 10
587.999771445990
 20
362.495157239959
 40
2.200000000000
 41
0.909090909091
 50
0.000000000000
  1
0.15
100
AcDbText
  0
TEXT
  5
208
100
AcDbEntity
  8
0
100
AcDbText
 62
     0
  6
CONTINUOUS
 10
587.983513936400
 20
365.462289512157
 40
2.200000000000
 41
0.909090909091
 50
0.000000000000
  1
0.10
100
AcDbText
  0
TEXT
  5
209
100
AcDbEntity
  8
0
100
AcDbText
 62
     0
  6
CONTINUOUS
 10
588.003882959485
 20
369.903152085841
 40
2.200000000000
 41
0.909090909091
 50
0.000000000000
  1
0.05
100
AcDbText
  0
LINE
  5
20A
100
AcDbEntity
  8
0
100
AcDbLine
 62
     0
  6
CONTINUOUS
 10
557.499916076660
 20
377.000015258789
 11
557.499916076660
 21
350.000000000000
  0
LINE
  5
20B
100
AcDbEntity
  8
0
100
AcDbLine
 62
     0
  6
CONTINUOUS
 10
623.499916076660
 20
353.000000000000
 11
567.999931335449
 21
353.000000000000
  0
LINE
  5
20C
100
AcDbEntity
  8
0
100
AcDbLine
 62
     0
  6
CONTINUOUS
 10
632.499931335449
 20
356.000000000000
 11
557.499916076660
 21
356.000000000000
  0
LINE
  5
20D
100
AcDbEntity
  8
0
100
AcDbLine
 62
     0
  6
CONTINUOUS
 10
623.499916076660
 20
359.000000000000
 11
557.499916076660
 21
359.000000000000
  0
LINE
  5
20E
100
AcDbEntity
  8
0
100
AcDbLine
 62
     0
  6
CONTINUOUS
 10
623.499916076660
 20
362.000000000000
 11
557.499916076660
 21
362.000000000000
  0
LINE
  5
20F
100
AcDbEntity
  8
0
100
AcDbLine
 62
     0
  6
CONTINUOUS
 10
623.499916076660
 20
365.000000000000
 11
557.499916076660
 21
365.000000000000
  0
LINE
  5
210
100
AcDbEntity
  8
0
100
AcDbLine
 62
     0
  6
CONTINUOUS
 10
623.499916076660
 20
368.000000000000
 11
557.499916076660
 21
368.000000000000
  0
LINE
  5
211
100
AcDbEntity
  8
0
100
AcDbLine
 62
     0
  6
CONTINUOUS
 10
576.999916076660
 20
371.000000000000
 11
557.499916076660
 21
371.000000000000
  0
LINE
  5
212
100
AcDbEntity
  8
0
100
AcDbLine
 62
     0
  6
CONTINUOUS
 10
632.499931335449
 20
374.000000000000
 11
557.499916076660
 21
374.000000000000
  0
LINE
  5
213
100
AcDbEntity
  8
0
100
AcDbLine
 62
     0
  6
CONTINUOUS
 10
587.499916076660
 20
377.000015258789
 11
587.499916076660
 21
356.000000000000
  0
LINE
  5
214
100
AcDbEntity
  8
0
100
AcDbLine
 62
     0
  6
CONTINUOUS
 10
596.499916076660
 20
377.000015258789
 11
596.499916076660
 21
356.000000000000
  0
LINE
  5
215
100
AcDbEntity
  8
0
100
AcDbLine
 62
     0
  6
CONTINUOUS
 10
605.499916076660
 20
377.000015258789
 11
605.499916076660
 21
356.000000000000
  0
LINE
  5
216
100
AcDbEntity
  8
0
100
AcDbLine
 62
     0
  6
CONTINUOUS
 10
614.499916076660
 20
377.000015258789
 11
614.499916076660
 21
350.000000000000
  0
LINE
  5
217
100
AcDbEntity
  8
0
100
AcDbLine
 62
     0
  6
CONTINUOUS
 10
623.499916076660
 20
377.000015258789
 11
623.499916076660
 21
350.000000000000
  0
LINE
  5
218
100
AcDbEntity
  8
0
100
AcDbLine
 62
     0
  6
CONTINUOUS
 10
576.999916076660
 20
377.000015258789
 11
576.999916076660
 21
350.000000000000
  0
LINE
  5
219
100
AcDbEntity
  8
0
100
AcDbLine
 62
     0
  6
CONTINUOUS
 10
596.499916076660
 20
371.000000000000
 11
605.499916076660
 21
371.000000000000
  0
LINE
  5
21A
100
AcDbEntity
  8
0
100
AcDbLine
 62
     0
  6
CONTINUOUS
 10
614.499916076660
 20
371.000000000000
 11
623.499916076660
 21
371.000000000000
  0
LINE
  5
21B
100
AcDbEntity
  8
0
100
AcDbLine
 62
     0
  6
CONTINUOUS
 10
567.999916076660
 20
356.000000000000
 11
567.999916076660
 21
350.000000000000
  0
TEXT
  5
21C
100
AcDbEntity
  8
0
100
AcDbText
 62
     0
  6
CONTINUOUS
 10
553.555292166770
 20
372.243320487440
 40
4.000000000000
 41
0.875000000000
 50
0.000000000000
  1
許
100
AcDbText
  0
TEXT
  5
21D
100
AcDbEntity
  8
0
100
AcDbText
 62
     0
  6
CONTINUOUS
 10
553.549936331809
 20
368.237313531339
 40
4.000000000000
 41
0.875000000000
 50
0.000000000000
  1
容
100
AcDbText
  0
TEXT
  5
21E
100
AcDbEntity
  8
0
100
AcDbText
 62
     0
  6
CONTINUOUS
 10
553.475221671164
 20
364.118986867368
 40
4.000000000000
 41
0.875000000000
 50
0.000000000000
  1
差
100
AcDbText
  0
TEXT
  5
21F
100
AcDbEntity
  8
0
100
AcDbText
 62
     0
  6
CONTINUOUS
 10
553.520486868918
 20
359.974048636854
 40
4.000000000000
 41
0.875000000000
 50
0.000000000000
  1
区
100
AcDbText
  0
TEXT
  5
220
100
AcDbEntity
  8
0
100
AcDbText
 62
     0
  6
CONTINUOUS
 10
553.595270194113
 20
355.931815050542
 40
4.000000000000
 41
0.875000000000
 50
0.000000000000
  1
分
100
AcDbText
  0
TEXT
  5
221
100
AcDbEntity
  8
0
100
AcDbText
 62
     0
  6
CONTINUOUS
 10
552.248163022101
 20
351.165030382574
 40
3.000000000000
 41
0.666666666667
 50
0.000000000000
  1
（%%p）
100
AcDbText
  0
TEXT
  5
222
100
AcDbEntity
  8
0
100
AcDbText
 62
     0
  6
CONTINUOUS
 10
561.333572387695
 20
374.265353981405
 40
2.200000000000
 41
1.045454545455
 50
0.000000000000
  1
区分／等級
100
AcDbText
  0
TEXT
  5
223
100
AcDbEntity
  8
0
100
AcDbText
 62
     0
  6
CONTINUOUS
 10
580.896232604980
 20
374.198520660400
 40
2.200000000000
 41
1.045454545455
 50
0.000000000000
  1
Ａ
100
AcDbText
  0
TEXT
  5
224
100
AcDbEntity
  8
0
100
AcDbText
 62
     0
  6
CONTINUOUS
 10
590.427177429199
 20
374.213291168213
 40
2.200000000000
 41
1.045454545455
 50
0.000000000000
  1
Ｂ
100
AcDbText
  0
TEXT
  5
225
100
AcDbEntity
  8
0
100
AcDbText
 62
     0
  6
CONTINUOUS
 10
598.833595275879
 20
374.198505401611
 40
2.200000000000
 41
1.045454545455
 50
0.000000000000
  1
Ｃ
100
AcDbText
  0
TEXT
  5
226
100
AcDbEntity
  8
0
100
AcDbText
 62
     0
  6
CONTINUOUS
 10
607.951759338379
 20
374.198520660400
 40
2.200000000000
 41
1.045454545455
 50
0.000000000000
  1
Ｄ
100
AcDbText
  0
TEXT
  5
227
100
AcDbEntity
  8
0
100
AcDbText
 62
     0
  6
CONTINUOUS
 10
617.219398498535
 20
374.198505401611
 40
2.200000000000
 41
1.045454545455
 50
0.000000000000
  1
Ｅ
100
AcDbText
  0
TEXT
  5
228
100
AcDbEntity
  8
0
100
AcDbText
 62
     0
  6
CONTINUOUS
 10
561.009365024045
 20
371.401884380728
 40
2.300000000000
 41
0.739130434783
 50
0.000000000000
  1
０を超え　 ３以下
100
AcDbText
  0
TEXT
  5
229
100
AcDbEntity
  8
0
100
AcDbText
 62
     0
  6
CONTINUOUS
 10
560.978666309267
 20
368.388792339712
 40
2.300000000000
 41
0.739130434783
 50
0.000000000000
  1
３を超え　 ６以下
100
AcDbText
  0
TEXT
  5
22A
100
AcDbEntity
  8
0
100
AcDbText
 62
     0
  6
CONTINUOUS
 10
561.075347900391
 20
365.301328960806
 40
2.300000000000
 41
0.739130434783
 50
0.000000000000
  1
６を超え　３０以下
100
AcDbText
  0
TEXT
  5
22B
100
AcDbEntity
  8
0
100
AcDbText
 62
     0
  6
CONTINUOUS
 10
559.392418434843
 20
362.333716230467
 40
2.300000000000
 41
0.739130434783
 50
0.000000000000
  1
３０を超え１２０以下
100
AcDbText
  0
TEXT
  5
22C
100
AcDbEntity
  8
0
100
AcDbText
 62
     0
  6
CONTINUOUS
 10
557.693543534726
 20
359.373677179217
 40
2.300000000000
 41
0.739130434783
 50
0.000000000000
  1
１２０を超え３１５以下
100
AcDbText
  0
TEXT
  5
22D
100
AcDbEntity
  8
0
100
AcDbText
 62
     0
  6
CONTINUOUS
 10
626.591880798340
 20
374.216617584229
 40
2.200000000000
 41
1.045454545455
 50
0.000000000000
  1
Ｆ
100
AcDbText
  0
TEXT
  5
22E
100
AcDbEntity
  8
0
100
AcDbText
 62
     0
  6
CONTINUOUS
 10
577.503882959485
 20
369.903152085841
 40
2.200000000000
 41
0.909090909091
 50
0.000000000000
  1
0.05
100
AcDbText
  0
TEXT
  5
22F
100
AcDbEntity
  8
0
100
AcDbText
 62
     0
  6
CONTINUOUS
 10
577.483513936400
 20
365.462289512157
 40
2.200000000000
 41
0.909090909091
 50
0.000000000000
  1
0.10
100
AcDbText
  0
TEXT
  5
230
100
AcDbEntity
  8
0
100
AcDbText
 62
     0
  6
CONTINUOUS
 10
577.499771445990
 20
362.495157239959
 40
2.200000000000
 41
0.909090909091
 50
0.000000000000
  1
0.12
100
AcDbText
  0
TEXT
  5
231
100
AcDbEntity
  8
0
100
AcDbText
 62
     0
  6
CONTINUOUS
 10
577.483513936400
 20
359.470891818404
 40
2.200000000000
 41
0.909090909091
 50
0.000000000000
  1
0.18
100
AcDbText
  0
TEXT
  5
232
100
AcDbEntity
  8
0
100
AcDbText
 62
     0
  6
CONTINUOUS
 10
557.833580017090
 20
356.334894657135
 40
2.300000000000
 41
0.739130434783
 50
0.000000000000
  1
３１５以上
100
AcDbText
  0
TEXT
  5
233
100
AcDbEntity
  8
0
100
AcDbText
 62
     0
  6
CONTINUOUS
 10
577.519888170063
 20
356.465965948999
 40
2.200000000000
 41
0.909090909091
 50
0.000000000000
  1
0.25
100
AcDbText
  0
TEXT
  5
234
100
AcDbEntity
  8
0
100
AcDbText
 62
     0
  6
CONTINUOUS
 10
570.212745666504
 20
353.302732784301
 40
2.500000000000
 41
0.920000000000
 50
0.000000000000
  1
直角
100
AcDbText
  0
TEXT
  5
235
100
AcDbEntity
  8
0
100
AcDbText
 62
     0
  6
CONTINUOUS
 10
568.828498840332
 20
350.268383342773
 40
2.500000000000
 41
0.920000000000
 50
0.000000000000
  1
その他
100
AcDbText
  0
TEXT
  5
236
100
AcDbEntity
  8
0
100
AcDbText
 62
     0
  6
CONTINUOUS
 10
592.995124816895
 20
353.507128708065
 40
2.200000000000
 41
0.909090909091
 50
0.000000000000
  1
1.0
100
AcDbText
  0
TEXT
  5
237
100
AcDbEntity
  8
0
100
AcDbText
 62
     0
  6
CONTINUOUS
 10
592.995124816895
 20
350.406847946346
 40
2.200000000000
 41
0.909090909091
 50
0.000000000000
  1
1.5
100
AcDbText
  0
TEXT
  5
238
100
AcDbEntity
  8
0
100
AcDbText
 62
     0
  6
CONTINUOUS
 10
557.722869873047
 20
351.557327270508
 40
3.000000000000
 41
0.766666666667
 50
0.000000000000
  1
角度（度）
100
AcDbText
  0
TEXT
  5
239
100
AcDbEntity
  8
0
100
AcDbText
 62
     0
  6
CONTINUOUS
 10
701.656517028809
 20
321.796768188477
 40
2.200000000000
 41
1.000000000000
 50
0.000000000000
  1
TAISEI GROUP
100
AcDbText
  0
TEXT
  5
23A
100
AcDbEntity
  8
0
100
AcDbText
 62
     0
  6
CONTINUOUS
 10
683.091842651367
 20
324.286399841309
 40
3.700000000000
 41
1.000000000000
 50
0.000000000000
  1
株式会社　タ　イ　セ　ー
100
AcDbText
  0
LINE
  5
23B
100
AcDbEntity
  8
0
100
AcDbLine
 62
     0
  6
CONTINUOUS
 10
646.090443491936
 20
353.214896619320
 11
658.909190118313
 21
353.214896619320
  0
LINE
  5
23C
100
AcDbEntity
  8
0
100
AcDbLine
 62
     0
  6
CONTINUOUS
 10
644.741101741791
 20
362.547843724489
 11
657.559848368168
 21
362.547843724489
  0
TEXT
  5
23D
100
AcDbEntity
  8
0
100
AcDbText
 62
     0
  6
CONTINUOUS
 10
618.653827637434
 20
336.630492240191
 40
4.000000000000
 41
1.000000000000
 50
0.000000000000
  1
吉本
100
AcDbText
  0
TEXT
  5
23E
100
AcDbEntity
  8
0
100
AcDbText
 62
     0
  6
CONTINUOUS
 10
593.619361534715
 20
329.655133053660
 40
1.800000000000
 41
1.000000000000
 50
0.000000000000
  1
2012.10.15
100
AcDbText
  0
TEXT
  5
23F
100
AcDbEntity
  8
0
100
AcDbText
 62
     0
  6
CONTINUOUS
 10
599.173333436251
 20
336.630492240191
 40
4.000000000000
 41
1.000000000000
 50
0.000000000000
  1
吉本
100
AcDbText
  0
POINT
  5
240
100
AcDbEntity
  8
0
100
AcDbPoint
 62
     0
  6
CONTINUOUS
 10
727.499908447266
 20
328.000000000000
  0
LINE
  5
241
100
AcDbEntity
  8
0
100
AcDbLine
 62
     0
  6
CONTINUOUS
 10
471.499908447266
 20
371.399993896484
 11
465.499908447266
 21
371.399993896484
  0
LINE
  5
242
100
AcDbEntity
  8
0
100
AcDbLine
 62
     0
  6
CONTINUOUS
 10
465.499908447266
 20
371.399993896484
 11
468.499908447266
 21
376.596145629883
  0
LINE
  5
243
100
AcDbEntity
  8
0
100
AcDbLine
 62
     0
  6
CONTINUOUS
 10
471.499908447266
 20
371.399993896484
 11
468.499908447266
 21
376.596145629883
  0
LINE
  5
244
100
AcDbEntity
  8
0
100
AcDbLine
 62
     0
  6
CONTINUOUS
 10
552.499908447266
 20
347.000000000000
 11
463.499908447266
 21
347.000000000000
  0
LINE
  5
245
100
AcDbEntity
  8
0
100
AcDbLine
 62
     0
  6
CONTINUOUS
 10
552.499908447266
 20
341.000000000000
 11
463.499908447266
 21
341.000000000000
  0
LINE
  5
246
100
AcDbEntity
  8
0
100
AcDbLine
 62
     0
  6
CONTINUOUS
 10
552.499908447266
 20
335.000000000000
 11
463.499908447266
 21
335.000000000000
  0
LINE
  5
247
100
AcDbEntity
  8
0
100
AcDbLine
 62
     0
  6
CONTINUOUS
 10
473.499908447266
 20
352.000045776367
 11
473.499908447266
 21
328.000000000000
  0
LINE
  5
248
100
AcDbEntity
  8
0
100
AcDbLine
 62
     0
  6
CONTINUOUS
 10
512.499908447266
 20
352.000045776367
 11
512.499908447266
 21
328.000000000000
  0
LINE
  5
249
100
AcDbEntity
  8
0
100
AcDbLine
 62
     0
  6
CONTINUOUS
 10
522.499908447266
 20
352.000045776367
 11
522.499908447266
 21
328.000000000000
  0
LINE
  5
24A
100
AcDbEntity
  8
0
100
AcDbLine
 62
     0
  6
CONTINUOUS
 10
532.499908447266
 20
352.000045776367
 11
532.499908447266
 21
328.000000000000
  0
LINE
  5
24B
100
AcDbEntity
  8
0
100
AcDbLine
 62
     0
  6
CONTINUOUS
 10
473.499908447266
 20
377.000000000000
 11
473.499908447266
 21
352.000000000000
  0
LINE
  5
24C
100
AcDbEntity
  8
0
100
AcDbLine
 62
     0
  6
CONTINUOUS
 10
512.499908447266
 20
377.000000000000
 11
512.499908447266
 21
352.000000000000
  0
LINE
  5
24D
100
AcDbEntity
  8
0
100
AcDbLine
 62
     0
  6
CONTINUOUS
 10
522.499908447266
 20
377.000000000000
 11
522.499908447266
 21
352.000000000000
  0
LINE
  5
24E
100
AcDbEntity
  8
0
100
AcDbLine
 62
     0
  6
CONTINUOUS
 10
532.499908447266
 20
377.000000000000
 11
532.499908447266
 21
352.000000000000
  0
LINE
  5
24F
100
AcDbEntity
  8
0
100
AcDbLine
 62
     0
  6
CONTINUOUS
 10
632.499923706055
 20
333.000000000000
 11
552.499908447266
 21
333.000000000000
  0
LINE
  5
250
100
AcDbEntity
  8
0
100
AcDbLine
 62
     0
  6
CONTINUOUS
 10
572.499908447266
 20
350.000000000000
 11
572.499908447266
 21
327.999984741211
  0
LINE
  5
251
100
AcDbEntity
  8
0
100
AcDbLine
 62
     0
  6
CONTINUOUS
 10
592.499908447266
 20
350.000000000000
 11
592.499908447266
 21
327.999984741211
  0
LINE
  5
252
100
AcDbEntity
  8
0
100
AcDbLine
 62
     0
  6
CONTINUOUS
 10
612.499908447266
 20
350.000000000000
 11
612.499908447266
 21
327.999984741211
  0
LINE
  5
253
100
AcDbEntity
  8
0
100
AcDbLine
 62
     3
  6
CONTINUOUS
 10
632.499908447266
 20
377.000000000000
 11
632.499908447266
 21
327.999984741211
  0
LINE
  5
254
100
AcDbEntity
  8
0
100
AcDbLine
 62
     0
  6
CONTINUOUS
 10
632.499923706055
 20
345.000000000000
 11
552.499908447266
 21
345.000000000000
  0
LINE
  5
255
100
AcDbEntity
  8
0
100
AcDbLine
 62
     3
  6
CONTINUOUS
 10
667.499908447266
 20
350.000000000000
 11
552.499908447266
 21
350.000000000000
  0
LINE
  5
256
100
AcDbEntity
  8
0
100
AcDbLine
 62
     3
  6
CONTINUOUS
 10
632.499908447266
 20
359.000000000000
 11
667.499908447266
 21
359.000000000000
  0
LINE
  5
257
100
AcDbEntity
  8
0
100
AcDbLine
 62
     3
  6
CONTINUOUS
 10
632.499908447266
 20
368.000000000000
 11
727.499908447266
 21
368.000000000000
  0
LINE
  5
258
100
AcDbEntity
  8
0
100
AcDbLine
 62
     3
  6
CONTINUOUS
 10
463.499908447266
 20
377.000000000000
 11
727.499908447266
 21
377.000000000000
  0
LINE
  5
259
100
AcDbEntity
  8
0
100
AcDbLine
 62
     3
  6
CONTINUOUS
 10
667.499908447266
 20
335.000000000000
 11
632.499923706055
 21
335.000000000000
  0
LINE
  5
25A
100
AcDbEntity
  8
0
100
AcDbLine
 62
     3
  6
CONTINUOUS
 10
667.499908447266
 20
377.000000000000
 11
667.499908447266
 21
327.999984741211
  0
LINE
  5
25B
100
AcDbEntity
  8
0
100
AcDbLine
 62
     0
  6
CONTINUOUS
 10
637.499908447266
 20
377.000000000000
 11
637.499908447266
 21
368.000000000000
  0
LINE
  5
25C
100
AcDbEntity
  8
0
100
AcDbLine
 62
     0
  6
CONTINUOUS
 10
639.499908447266
 20
368.000000000000
 11
639.499908447266
 21
350.000000000000
  0
LINE
  5
25D
100
AcDbEntity
  8
0
100
AcDbLine
 62
     0
  6
CONTINUOUS
 10
637.499908447266
 20
350.000000000000
 11
637.499908447266
 21
335.000000000000
  0
LINE
  5
25E
100
AcDbEntity
  8
0
100
AcDbLine
 62
     0
  6
CONTINUOUS
 10
639.499908447266
 20
335.000000000000
 11
639.499908447266
 21
327.999984741211
  0
LINE
  5
25F
100
AcDbEntity
  8
0
100
AcDbLine
 62
     3
  6
CONTINUOUS
 10
727.499969482422
 20
340.000000000000
 11
667.499908447266
 21
340.000000000000
  0
LINE
  5
260
100
AcDbEntity
  8
0
100
AcDbLine
 62
     3
  6
CONTINUOUS
 10
727.499969482422
 20
352.000000000000
 11
667.499908447266
 21
352.000000000000
  0
LINE
  5
261
100
AcDbEntity
  8
0
100
AcDbLine
 62
     0
  6
CONTINUOUS
 10
672.499908447266
 20
377.000000000000
 11
672.499908447266
 21
327.999984741211
  0
LINE
  5
262
100
AcDbEntity
  8
0
100
AcDbLine
 62
     3
  6
CONTINUOUS
 10
687.499908447266
 20
377.000000000000
 11
687.499908447266
 21
368.000000000000
  0
LINE
  5
263
100
AcDbEntity
  8
0
100
AcDbLine
 62
     0
  6
CONTINUOUS
 10
692.499908447266
 20
377.000000000000
 11
692.499908447266
 21
368.000000000000
  0
LINE
  5
264
100
AcDbEntity
  8
0
100
AcDbLine
 62
     3
  6
CONTINUOUS
 10
712.499908447266
 20
377.000000000000
 11
712.499908447266
 21
368.000000000000
  0
LINE
  5
265
100
AcDbEntity
  8
0
100
AcDbLine
 62
     0
  6
CENTER2
 48
10.0
 10
712.851699829102
 20
372.500000000000
 11
727.313842773438
 21
372.500000000000
  0
LINE
  5
266
100
AcDbEntity
  8
0
100
AcDbLine
 62
     0
  6
CENTER2
 48
10.0
 10
716.249908447266
 20
376.331329345703
 11
716.249908447266
 21
368.477401733398
  0
CIRCLE
  5
267
100
AcDbEntity
  8
0
100
AcDbCircle
 62
     3
  6
CONTINUOUS
 10
716.249908447266
 20
372.500000000000
 40
1.500000000000
  0
CIRCLE
  5
268
100
AcDbEntity
  8
0
100
AcDbCircle
 62
     3
  6
CONTINUOUS
 10
716.249908447266
 20
372.500000000000
 40
3.000000000000
  0
LINE
  5
269
100
AcDbEntity
  8
0
100
AcDbLine
 62
     3
  6
CONTINUOUS
 10
720.999908447266
 20
374.000000000000
 11
726.499908447266
 21
375.500000000000
  0
LINE
  5
26A
100
AcDbEntity
  8
0
100
AcDbLine
 62
     3
  6
CONTINUOUS
 10
720.999908447266
 20
371.000000000000
 11
726.499908447266
 21
369.500000000000
  0
LINE
  5
26B
100
AcDbEntity
  8
0
100
AcDbLine
 62
     3
  6
CONTINUOUS
 10
720.999908447266
 20
374.000000000000
 11
720.999908447266
 21
371.000000000000
  0
LINE
  5
26C
100
AcDbEntity
  8
0
100
AcDbLine
 62
     3
  6
CONTINUOUS
 10
726.499908447266
 20
375.500000000000
 11
726.499908447266
 21
369.500000000000
  0
LINE
  5
26D
100
AcDbEntity
  8
0
100
AcDbLine
 62
     0
  6
HIDDEN
 48
10.0
 10
725.499908447266
 20
360.000000000000
 11
674.954879760742
 21
360.000000000000
  0
LINE
  5
26E
100
AcDbEntity
  8
0
100
AcDbLine
 62
     0
  6
CONTINUOUS
 10
471.499908447266
 20
335.399993896484
 11
465.499908447266
 21
335.399993896484
  0
LINE
  5
26F
100
AcDbEntity
  8
0
100
AcDbLine
 62
     0
  6
CONTINUOUS
 10
471.499908447266
 20
335.399993896484
 11
468.499908447266
 21
340.596145629883
  0
LINE
  5
270
100
AcDbEntity
  8
0
100
AcDbLine
 62
     0
  6
CONTINUOUS
 10
465.499908447266
 20
335.399993896484
 11
468.499908447266
 21
340.596145629883
  0
LINE
  5
271
100
AcDbEntity
  8
0
100
AcDbLine
 62
     0
  6
CONTINUOUS
 10
471.499908447266
 20
341.399993896484
 11
468.499908447266
 21
346.596145629883
  0
LINE
  5
272
100
AcDbEntity
  8
0
100
AcDbLine
 62
     0
  6
CONTINUOUS
 10
465.499908447266
 20
341.399993896484
 11
468.499908447266
 21
346.596145629883
  0
LINE
  5
273
100
AcDbEntity
  8
0
100
AcDbLine
 62
     0
  6
CONTINUOUS
 10
471.499908447266
 20
341.399993896484
 11
465.499908447266
 21
341.399993896484
  0
LINE
  5
274
100
AcDbEntity
  8
0
100
AcDbLine
 62
     0
  6
CONTINUOUS
 10
471.499908447266
 20
347.399993896484
 11
468.499908447266
 21
352.596145629883
  0
LINE
  5
275
100
AcDbEntity
  8
0
100
AcDbLine
 62
     0
  6
CONTINUOUS
 10
465.499908447266
 20
347.399993896484
 11
468.499908447266
 21
352.596145629883
  0
LINE
  5
276
100
AcDbEntity
  8
0
100
AcDbLine
 62
     0
  6
CONTINUOUS
 10
471.499908447266
 20
347.399993896484
 11
465.499908447266
 21
347.399993896484
  0
LINE
  5
277
100
AcDbEntity
  8
0
100
AcDbLine
 62
     0
  6
CONTINUOUS
 10
471.499908447266
 20
353.399993896484
 11
468.499908447266
 21
358.596145629883
  0
LINE
  5
278
100
AcDbEntity
  8
0
100
AcDbLine
 62
     0
  6
CONTINUOUS
 10
465.499908447266
 20
353.399993896484
 11
468.499908447266
 21
358.596145629883
  0
LINE
  5
279
100
AcDbEntity
  8
0
100
AcDbLine
 62
     0
  6
CONTINUOUS
 10
471.499908447266
 20
353.399993896484
 11
465.499908447266
 21
353.399993896484
  0
LINE
  5
27A
100
AcDbEntity
  8
0
100
AcDbLine
 62
     0
  6
CONTINUOUS
 10
471.499908447266
 20
359.399993896484
 11
468.499908447266
 21
364.596145629883
  0
LINE
  5
27B
100
AcDbEntity
  8
0
100
AcDbLine
 62
     0
  6
CONTINUOUS
 10
465.499908447266
 20
359.399993896484
 11
468.499908447266
 21
364.596145629883
  0
LINE
  5
27C
100
AcDbEntity
  8
0
100
AcDbLine
 62
     0
  6
CONTINUOUS
 10
471.499908447266
 20
359.399993896484
 11
465.499908447266
 21
359.399993896484
  0
LINE
  5
27D
100
AcDbEntity
  8
0
100
AcDbLine
 62
     0
  6
CONTINUOUS
 10
471.499908447266
 20
365.399993896484
 11
468.499908447266
 21
370.596145629883
  0
LINE
  5
27E
100
AcDbEntity
  8
0
100
AcDbLine
 62
     0
  6
CONTINUOUS
 10
465.499908447266
 20
365.399993896484
 11
468.499908447266
 21
370.596145629883
  0
LINE
  5
27F
100
AcDbEntity
  8
0
100
AcDbLine
 62
     0
  6
CONTINUOUS
 10
471.499908447266
 20
365.399993896484
 11
465.499908447266
 21
365.399993896484
  0
LINE
  5
280
100
AcDbEntity
  8
0
100
AcDbLine
 62
     3
  6
CONTINUOUS
 10
552.499908447266
 20
377.000000000000
 11
552.499908447266
 21
328.000000000000
  0
LINE
  5
281
100
AcDbEntity
  8
0
100
AcDbLine
 62
     0
  6
CONTINUOUS
 10
463.499908447266
 20
353.000000000000
 11
552.499908447266
 21
353.000000000000
  0
LINE
  5
282
100
AcDbEntity
  8
0
100
AcDbLine
 62
     0
  6
CONTINUOUS
 10
463.499908447266
 20
359.000000000000
 11
552.499908447266
 21
359.000000000000
  0
LINE
  5
283
100
AcDbEntity
  8
0
100
AcDbLine
 62
     0
  6
CONTINUOUS
 10
463.499908447266
 20
365.000000000000
 11
552.499908447266
 21
365.000000000000
  0
LINE
  5
284
100
AcDbEntity
  8
0
100
AcDbLine
 62
     0
  6
CONTINUOUS
 10
463.499908447266
 20
371.000000000000
 11
552.499908447266
 21
371.000000000000
  0
TEXT
  5
285
100
AcDbEntity
  8
0
100
AcDbText
 62
     0
  6
CONTINUOUS
 10
644.355322618037
 20
329.434095069766
 40
4.000000000000
 41
0.500000000000
 50
0.000000000000
  1
第2製造部製造3Ｇ
100
AcDbText
  0
TEXT
  5
286
100
AcDbEntity
  8
0
100
AcDbText
 62
     0
  6
CONTINUOUS
 10
467.512100219727
 20
371.526325225830
 40
3.200000000000
 41
0.781250000000
 50
0.000000000000
  1
7
100
AcDbText
  0
TEXT
  5
287
100
AcDbEntity
  8
0
100
AcDbText
 62
     0
  6
CONTINUOUS
 10
465.142089843750
 20
329.046859741211
 40
5.000000000000
 41
0.900000000000
 50
0.000000000000
  1
記号
100
AcDbText
  0
TEXT
  5
288
100
AcDbEntity
  8
0
100
AcDbText
 62
     0
  6
CONTINUOUS
 10
478.261779785156
 20
329.140594482422
 40
5.000000000000
 41
0.900000000000
 50
0.000000000000
  1
訂　正　記　事
100
AcDbText
  0
TEXT
  5
289
100
AcDbEntity
  8
0
100
AcDbText
 62
     0
  6
CONTINUOUS
 10
513.277313232422
 20
329.136199951172
 40
5.000000000000
 41
0.900000000000
 50
0.000000000000
  1
担当
100
AcDbText
  0
TEXT
  5
28A
100
AcDbEntity
  8
0
100
AcDbText
 62
     0
  6
CONTINUOUS
 10
523.418151855469
 20
328.912200927734
 40
5.000000000000
 41
0.900000000000
 50
0.000000000000
  1
確認
100
AcDbText
  0
TEXT
  5
28B
100
AcDbEntity
  8
0
100
AcDbText
 62
     0
  6
CONTINUOUS
 10
535.999114990234
 20
329.059295654297
 40
5.000000000000
 41
0.900000000000
 50
0.000000000000
  1
年月日
100
AcDbText
  0
TEXT
  5
28C
100
AcDbEntity
  8
0
100
AcDbText
 62
     0
  6
CONTINUOUS
 10
557.124450683594
 20
345.361038208008
 40
4.000000000000
 41
0.875000000000
 50
0.000000000000
  1
承　認
100
AcDbText
  0
TEXT
  5
28D
100
AcDbEntity
  8
0
100
AcDbText
 62
     0
  6
CONTINUOUS
 10
598.255859375000
 20
345.327339172363
 40
4.000000000000
 41
0.875000000000
 50
0.000000000000
  1
製　図
100
AcDbText
  0
TEXT
  5
28E
100
AcDbEntity
  8
0
100
AcDbText
 62
     0
  6
CONTINUOUS
 10
617.577011108398
 20
345.355384826660
 40
4.000000000000
 41
0.875000000000
 50
0.000000000000
  1
設　計
100
AcDbText
  0
TEXT
  5
28F
100
AcDbEntity
  8
0
100
AcDbText
 62
     0
  6
CONTINUOUS
 10
633.357116699219
 20
372.752304077148
 40
4.200000000000
 41
0.833333333333
 50
0.000000000000
  1
材
100
AcDbText
  0
TEXT
  5
290
100
AcDbEntity
  8
0
100
AcDbText
 62
     0
  6
CONTINUOUS
 10
633.237823486328
 20
368.418891906738
 40
4.200000000000
 41
0.833333333333
 50
0.000000000000
  1
質
100
AcDbText
  0
TEXT
  5
291
100
AcDbEntity
  8
0
100
AcDbText
 62
     0
  6
CONTINUOUS
 10
632.823120117188
 20
363.795265197754
 40
3.200000000000
 41
0.937500000000
 50
0.000000000000
  1
表面
100
AcDbText
  0
TEXT
  5
292
100
AcDbEntity
  8
0
100
AcDbText
 62
     0
  6
CONTINUOUS
 10
632.823120117188
 20
359.942085266113
 40
3.200000000000
 41
0.937500000000
 50
0.000000000000
  1
処理
100
AcDbText
  0
TEXT
  5
293
100
AcDbEntity
  8
0
100
AcDbText
 62
     0
  6
CONTINUOUS
 10
634.263107299805
 20
355.023437500000
 40
3.500000000000
 41
0.857142857143
 50
0.000000000000
  1
熱
100
AcDbText
  0
TEXT
  5
294
100
AcDbEntity
  8
0
100
AcDbText
 62
     0
  6
CONTINUOUS
 10
632.846496582031
 20
351.000251770020
 40
3.200000000000
 41
0.937500000000
 50
0.000000000000
  1
処理
100
AcDbText
  0
TEXT
  5
295
100
AcDbEntity
  8
0
100
AcDbText
 62
     0
  6
CONTINUOUS
 10
633.443649291992
 20
343.725143432617
 40
4.300000000000
 41
0.813953488372
 50
0.000000000000
  1
備
100
AcDbText
  0
TEXT
  5
296
100
AcDbEntity
  8
0
100
AcDbText
 62
     0
  6
CONTINUOUS
 10
633.670303344727
 20
337.605392456055
 40
4.300000000000
 41
0.813953488372
 50
0.000000000000
  1
考
100
AcDbText
  0
TEXT
  5
297
100
AcDbEntity
  8
0
100
AcDbText
 62
     0
  6
CONTINUOUS
 10
633.489456176758
 20
331.918075561523
 40
3.000000000000
 41
1.000000000000
 50
0.000000000000
  1
設計
100
AcDbText
  0
TEXT
  5
298
100
AcDbEntity
  8
0
100
AcDbText
 62
     0
  6
CONTINUOUS
 10
633.262802124023
 20
328.518234252930
 40
3.000000000000
 41
1.000000000000
 50
0.000000000000
  1
部署
100
AcDbText
  0
TEXT
  5
299
100
AcDbEntity
  8
0
100
AcDbText
 62
     0
  6
CONTINUOUS
 10
668.310104370117
 20
372.707870483398
 40
4.200000000000
 41
0.833333333333
 50
0.000000000000
  1
個
100
AcDbText
  0
TEXT
  5
29A
100
AcDbEntity
  8
0
100
AcDbText
 62
     0
  6
CONTINUOUS
 10
668.443237304688
 20
368.275726318359
 40
4.200000000000
 41
0.833333333333
 50
0.000000000000
  1
数
100
AcDbText
  0
TEXT
  5
29B
100
AcDbEntity
  8
0
100
AcDbText
 62
     0
  6
CONTINUOUS
 10
688.338302612305
 20
372.582878112793
 40
4.200000000000
 41
0.833333333333
 50
0.000000000000
  1
尺
100
AcDbText
  0
TEXT
  5
29C
100
AcDbEntity
  8
0
100
AcDbText
 62
     0
  6
CONTINUOUS
 10
688.413085937500
 20
368.593399047852
 40
4.200000000000
 41
0.833333333333
 50
0.000000000000
  1
度
100
AcDbText
  0
TEXT
  5
29D
100
AcDbEntity
  8
0
100
AcDbText
 62
     0
  6
CONTINUOUS
 10
668.431762695312
 20
361.625579833984
 40
4.200000000000
 41
0.833333333333
 50
0.000000000000
  1
名
100
AcDbText
  0
TEXT
  5
29E
100
AcDbEntity
  8
0
100
AcDbText
 62
     0
  6
CONTINUOUS
 10
668.443847656250
 20
353.861351013184
 40
4.200000000000
 41
0.833333333333
 50
0.000000000000
  1
称
100
AcDbText
  0
TEXT
  5
29F
100
AcDbEntity
  8
0
100
AcDbText
 62
     0
  6
CONTINUOUS
 10
668.383605957031
 20
347.068244934082
 40
4.200000000000
 41
0.833333333333
 50
0.000000000000
  1
品
100
AcDbText
  0
TEXT
  5
2A0
100
AcDbEntity
  8
0
100
AcDbText
 62
     0
  6
CONTINUOUS
 10
668.344619750977
 20
341.711341857910
 40
4.200000000000
 41
0.833333333333
 50
0.000000000000
  1
名
100
AcDbText
  0
TEXT
  5
2A1
100
AcDbEntity
  8
0
100
AcDbText
 62
     0
  6
CONTINUOUS
 10
668.600952148438
 20
334.484710693359
 40
4.200000000000
 41
0.833333333333
 50
0.000000000000
  1
図
100
AcDbText
  0
TEXT
  5
2A2
100
AcDbEntity
  8
0
100
AcDbText
 62
     0
  6
CONTINUOUS
 10
668.481903076172
 20
329.400360107422
 40
4.200000000000
 41
0.833333333333
 50
0.000000000000
  1
番
100
AcDbText
  0
TEXT
  5
2A3
100
AcDbEntity
  8
0
100
AcDbText
 62
     0
  6
CONTINUOUS
 10
467.230117797852
 20
353.656700134277
 40
3.200000000000
 41
0.781250000000
 50
0.000000000000
  1
4
100
AcDbText
  0
TEXT
  5
2A4
100
AcDbEntity
  8
0
100
AcDbText
 62
     0
  6
CONTINUOUS
 10
467.512100219727
 20
359.547565460205
 40
3.200000000000
 41
0.781250000000
 50
0.000000000000
  1
5
100
AcDbText
  0
TEXT
  5
2A5
100
AcDbEntity
  8
0
100
AcDbText
 62
     0
  6
CONTINUOUS
 10
467.512100219727
 20
365.526325225830
 40
3.200000000000
 41
0.781250000000
 50
0.000000000000
  1
6
100
AcDbText
  0
TEXT
  5
2A6
100
AcDbEntity
  8
0
100
AcDbText
 62
     0
  6
CONTINUOUS
 10
467.446029663086
 20
347.790039062500
 40
3.200000000000
 41
0.781250000000
 50
0.000000000000
  1
3
100
AcDbText
  0
TEXT
  5
2A7
100
AcDbEntity
  8
0
100
AcDbText
 62
     0
  6
CONTINUOUS
 10
467.533920288086
 20
341.591537475586
 40
3.200000000000
 41
0.781250000000
 50
0.000000000000
  1
2
100
AcDbText
  0
TEXT
  5
2A8
100
AcDbEntity
  8
0
100
AcDbText
 62
     0
  6
CONTINUOUS
 10
467.621841430664
 20
335.656723022461
 40
3.200000000000
 41
0.781250000000
 50
0.000000000000
  1
1
100
AcDbText
  0
TEXT
  5
2A9
100
AcDbEntity
  8
0
100
AcDbText
 62
     0
  6
CONTINUOUS
 10
577.195770263672
 20
345.442474365234
 40
4.000000000000
 41
0.875000000000
 50
0.000000000000
  1
検　図
100
AcDbText
  0
TEXT
  5
2AA
100
AcDbEntity
  8
0
100
AcDbText
 62
     0
  6
CONTINUOUS
 10
640.436645507812
 20
355.259620666504
 40
3.200000000000
 41
0.937500000000
 50
0.000000000000
  1
Ｈ Ｃ
100
AcDbText
  0
TEXT
  5
2AB
100
AcDbEntity
  8
0
100
AcDbText
 62
     0
  6
CONTINUOUS
 10
644.106872558594
 20
355.397987365723
 40
2.500000000000
 41
0.800000000000
 50
0.000000000000
  1
Ｒ
100
AcDbText
  0
LINE
  5
2AC
100
AcDbEntity
  8
0
100
AcDbLine
 62
     2
  6
CONTINUOUS
 10
717.499908447266
 20
504.000000000000
 11
727.499862670898
 21
504.000000000000
  0
TEXT
  5
2AD
100
AcDbEntity
  8
0
100
AcDbText
 62
     0
  6
CONTINUOUS
 10
719.365768432617
 20
514.909019470215
 40
3.300000000000
 41
0.848484848485
 50
0.000000000000
  1
枚数
100
AcDbText
  0
LINE
  5
2AE
100
AcDbEntity
  8
0
100
AcDbLine
 62
     2
  6
CONTINUOUS
 10
717.499908447266
 20
514.000000000000
 11
727.499862670898
 21
514.000000000000
  0
LINE
  5
2AF
100
AcDbEntity
  8
0
100
AcDbLine
 62
     2
  6
CONTINUOUS
 10
717.499908447266
 20
504.000000000000
 11
717.499908447266
 21
519.000000000000
  0
LINE
  5
2B0
100
AcDbEntity
  8
0
100
AcDbLine
 62
     3
  6
CONTINUOUS
 10
463.499908447266
 20
519.000000000000
 11
463.499908447266
 21
328.000000000000
  0
LINE
  5
2B1
100
AcDbEntity
  8
0
100
AcDbLine
 62
     3
  6
CONTINUOUS
 10
463.499908447266
 20
328.000000000000
 11
727.499908447266
 21
328.000000000000
  0
LINE
  5
2B2
100
AcDbEntity
  8
0
100
AcDbLine
 62
     3
  6
CONTINUOUS
 10
463.499908447266
 20
519.000000000000
 11
727.499862670898
 21
519.000000000000
  0
LINE
  5
2B3
100
AcDbEntity
  8
0
100
AcDbLine
 62
     3
  6
CONTINUOUS
 10
727.499908447266
 20
519.000000000000
 11
727.499908447266
 21
327.999984741211
  0
POINT
  5
2B4
100
AcDbEntity
  8
0
100
AcDbPoint
 62
     0
  6
CONTINUOUS
 10
727.499908447266
 20
328.000000000000
  0
TEXT
  5
2B5
100
AcDbEntity
  8
0
100
AcDbText
 62
     0
  6
CONTINUOUS
 10
697.124998271465
 20
370.714283943176
 40
3.000000000000
 41
1.000000000000
 50
0.000000000000
  1
1:1
100
AcDbText
  0
TEXT
  5
2B6
100
AcDbEntity
  8
0
100
AcDbText
 62
     0
  6
CONTINUOUS
 10
463.764452576637
 20
394.197222530842
 40
4.300000000000
 41
1.000000000000
 50
0.000000000000
  1
　
100
AcDbText
  0
POINT
  5
2B7
100
AcDbEntity
  8
0
100
AcDbPoint
 62
     6
  6
CONTINUOUS
 10
595.499908447266
 20
519.000000000000
  0
POINT
  5
2B8
100
AcDbEntity
  8
0
100
AcDbPoint
 62
     6
  6
CONTINUOUS
 10
727.499908447266
 20
448.000000000000
  0
POINT
  5
2B9
100
AcDbEntity
  8
0
100
AcDbPoint
 62
     6
  6
CONTINUOUS
 10
463.499908447266
 20
448.000000000000
  0
POINT
  5
2BA
100
AcDbEntity
  8
0
100
AcDbPoint
 62
     6
  6
CONTINUOUS
 10
595.499908447266
 20
377.000000000000
  0
TEXT
  5
2BB
100
AcDbEntity
  8
0
100
AcDbText
 62
     0
  6
CONTINUOUS
 10
659.264155566692
 20
429.293242350221
 40
3.500000000000
 41
0.714285714286
 50
0.000000000000
  1
リード線赤（+）
100
AcDbText
  0
TEXT
  5
2BC
100
AcDbEntity
  8
0
100
AcDbText
 62
     0
  6
CONTINUOUS
 10
529.770766183734
 20
402.717140760273
 40
4.000000000000
 41
0.875000000000
 50
0.000000000000
  1
裏面
100
AcDbText
  0
TEXT
  5
2BD
100
AcDbEntity
  8
0
100
AcDbText
 62
     0
  6
CONTINUOUS
 10
649.655082374811
 20
403.298859149218
 40
4.000000000000
 41
0.875000000000
 50
0.000000000000
  1
表面
100
AcDbText
  0
TEXT
  5
2BE
100
AcDbEntity
  8
0
100
AcDbText
 62
     0
  6
CONTINUOUS
 10
681.344519078732
 20
343.831555098295
 40
4.000000000000
 41
0.875000000000
 50
0.000000000000
  1
ＵＴ－2020CE-M
100
AcDbText
  0
TEXT
  5
2BF
100
AcDbEntity
  8
0
100
AcDbText
 62
     0
  6
CONTINUOUS
 10
691.170195647430
 20
361.500000000000
 40
4.000000000000
 41
0.875000000000
 50
359.999999980633
  1
ユニサーモ
100
AcDbText
  0
LINE
  5
2C0
100
AcDbEntity
  8
0
100
AcDbLine
 62
     0
  6
CONTINUOUS
 10
637.499908447266
 20
368.000000000000
 11
667.499908447266
 21
377.000000000000
  0
LINE
  5
2C1
100
AcDbEntity
  8
0
100
AcDbLine
 62
     0
  6
CONTINUOUS
 10
552.499908447266
 20
377.000000000000
 11
632.499908447266
 21
350.000000000000
  0
LINE
  5
2C2
100
AcDbEntity
  8
0
100
AcDbLine
 62
     0
  6
CONTINUOUS
 10
552.499908447266
 20
350.000000000000
 11
632.499908447266
 21
377.000000000000
  0
ENDSEC
  0
SECTION
  2
OBJECTS
  0
DICTIONARY
  5
C
100
AcDbDictionary
  3
ACAD_GROUP
350
D
  3
ACAD_MLINESTYLE
350
E
  0
DICTIONARY
  5
D
102
{ACAD_REACTORS
330
C
102
}
100
AcDbDictionary
  0
DICTIONARY
  5
E
102
{ACAD_REACTORS
330
C
102
}
100
AcDbDictionary
  3
STANDARD
350
1C
  0
MLINESTYLE
  5
1C
102
{ACAD_REACTORS
330
E
102
}
100
AcDbMlineStyle
  2
STANDARD
 70
     0
  3

 62
     0
 51
90.0
 52
90.0
 71
     2
 49
0.5
 62
   256
  6
BYLAYER
 49
-0.5
 62
   256
  6
BYLAYER
  0
ENDSEC
  0
EOF
